<?xml version="1.0" standalone="no"?>
<!DOCTYPE svg PUBLIC "-//W3C//DTD SVG 1.1//EN" "http://www.w3.org/Graphics/SVG/1.1/DTD/svg11.dtd">
<svg xmlns="http://www.w3.org/2000/svg">
<metadata>Copyright (C) 2017 by original authors</metadata>
<defs>
<font id="zanui-icon" horiz-adv-x="1000" >
<font-face font-family="zanui-icon" font-weight="400" font-stretch="normal" units-per-em="1000" ascent="850" descent="-150" />
<missing-glyph horiz-adv-x="1000" />
<glyph glyph-name="qr-invalid" unicode="&#xe800;" d="M455 438l-33-42h-422v454h455v-412z m-319 276v-182h182v182h-182z m0-687l-136-177h227l228 294v-294h-455v455h351l-105-137h-110v-141z m443 278h148v-228h-181v185l33 43z m-33-273h181v-182h-181z m227 273h227v-137h-227z m0 0h91v-455h-91z m136 0h91v-455h-91z m-45 369l136 176h-227l-227-294v294h454v-454h-351l105 136h110v142z" horiz-adv-x="1000" />

<glyph glyph-name="qr" unicode="&#xe801;" d="M0 850h455v-454h-455v454z m136-136v-182h182v182h-182z m-136-409h455v-455h-455v455z m136-137v-182h182v182h-182z m410 137h181v-228h-181z m0-273h181v-182h-181z m227 273h227v-137h-227z m0 0h91v-455h-91z m136 0h91v-455h-91z m-363 545h454v-454h-454v454z m136-136v-182h182v182h-182z" horiz-adv-x="1000" />

<glyph glyph-name="pay-fail" unicode="&#xe802;" d="M413 413l176-177m0 177l-176-177" horiz-adv-x="1000" />

<glyph glyph-name="exchange" unicode="&#xe803;" d="M0 850h1000v-1000h-1000z m500-475c-205 0-375 97-375 225s170 225 375 225 375-97 375-225-170-225-375-225z m0 50c181 0 325 82 325 175s-144 175-325 175-325-82-325-175 144-175 325-175z m-272 19a292 292 0 0 0-41 31c-39-35-62-78-62-125 0-128 170-225 375-225s375 97 375 225c0 47-23 90-62 125-12-11-26-21-41-31 34-27 53-60 53-94 0-93-144-175-325-175s-325 82-325 175c0 34 19 67 53 94z m0-250a292 292 0 0 0-41 31c-39-35-62-78-62-125 0-128 170-225 375-225s375 97 375 225c0 47-23 90-62 125-12-11-26-21-41-31 34-27 53-60 53-94 0-93-144-175-325-175s-325 82-325 175c0 34 19 67 53 94z" horiz-adv-x="1000" />

<glyph glyph-name="close" unicode="&#xe804;" d="M0 850h1000v-1000h-1000z m500-909a409 409 0 1 1 0 818 409 409 0 0 1 0-818z m0-46c-251 0-454 204-454 455s203 455 454 455 455-204 455-455-204-455-455-455z m2 486l-145 144a23 23 0 0 1-32-32l145-145-145-144a23 23 0 0 1 32-32l145 144 144-144a23 23 0 1 1 32 32l-144 144 144 145a23 23 0 1 1-32 32l-144-144z" horiz-adv-x="1000" />

<glyph glyph-name="location" unicode="&#xe805;" d="M0 850h1000v-1000h-1000z m539-913a831 831 0 0 1 140 93c124 102 196 226 196 376 0 211-168 382-375 382s-375-171-375-382c0-150 73-274 196-376a831 831 0 0 1 179-112c11 5 24 11 39 19z m-39-87s-437 167-437 556c0 245 195 444 437 444s438-199 438-444c0-389-438-556-438-556z m0 438a125 125 0 1 1 0 250 125 125 0 0 1 0-250z m0-63a188 188 0 1 0 0 375 188 188 0 0 0 0-375z" horiz-adv-x="1000" />

<glyph glyph-name="upgrade" unicode="&#xe806;" d="M0 850h1000v-1000h-1000z m500-917c230 0 417 187 417 417s-187 417-417 417-417-187-417-417 187-417 417-417z m0-41c-253 0-458 205-458 458s205 458 458 458 458-205 458-458-205-458-458-458z m21 616l173-173 29 30-223 223-223-223 29-30 173 173v-450h42z" horiz-adv-x="1000" />

<glyph glyph-name="check" unicode="&#xe807;" d="M0 850h1000v-1000h-1000z m500-841a341 341 0 1 1 0 682 341 341 0 0 1 0-682z m0-68a409 409 0 1 0 0 818 409 409 0 0 0 0-818z" horiz-adv-x="1000" />

<glyph glyph-name="checked" unicode="&#xe808;" d="M500-59a409 409 0 1 0 0 818 409 409 0 0 0 0-818z m-172 464l-65-64 169-169 305 305-65 64-240-240-104 104z" horiz-adv-x="1000" />

<glyph glyph-name="like-o" unicode="&#xe809;" d="M1097 474c0-163-93-295-251-399a1028 1028 0 0 0-180-94 811 811 0 0 0-80-28l29 0a846 846 0 0 0-81 29 1072 1072 0 0 0-180 97c-158 106-251 237-251 395 0 283 292 379 453 116 20-34 68-33 88 0 157 264 453 167 453-116z m103 0c0 386-432 528-644 170l88 1c-217 355-644 215-644-171 0-199 113-359 297-483a1173 1173 0 0 1 289-139 51 51 0 0 1 28 0c5 1 14 4 26 8 20 7 41 15 65 24a1129 1129 0 0 1 197 103c185 122 298 283 298 487z" horiz-adv-x="1200" />

<glyph glyph-name="like" unicode="&#xe80a;" d="M1097 474c0-163-93-295-251-399a1028 1028 0 0 0-180-94 811 811 0 0 0-80-28l29 0a846 846 0 0 0-81 29 1072 1072 0 0 0-180 97c-158 106-251 237-251 395 0 283 292 379 453 116 20-34 68-33 88 0 157 264 453 167 453-116z m103 0c0 386-432 528-644 170l88 1c-217 355-644 215-644-171 0-199 113-359 297-483a1173 1173 0 0 1 289-139 51 51 0 0 1 28 0c5 1 14 4 26 8 20 7 41 15 65 24a1129 1129 0 0 1 197 103c185 122 298 283 298 487z" horiz-adv-x="1200" />

<glyph glyph-name="chat" unicode="&#xe80b;" d="M0 850h1000v-1000h-1000z m313-874l-146-71c-25-12-42 0-39 27l22 167a418 418 0 0 0-100 270c0 238 202 431 450 431s450-193 450-431c0-238-201-431-450-431a465 465 0 0 0-187 38z m-111 139l-19-147 130 64a414 414 0 0 1 187-44c221 0 400 171 400 381 0 210-179 381-400 381s-400-171-400-381c0-98 39-187 102-254z" horiz-adv-x="1000" />

<glyph glyph-name="paid" unicode="&#xe80c;" d="" horiz-adv-x="1000" />

<glyph glyph-name="delivered" unicode="&#xe80d;" d="" horiz-adv-x="1000" />

<glyph glyph-name="finished" unicode="&#xe80e;" d="M385 318l77-76 153 191" horiz-adv-x="1000" />

<glyph glyph-name="shop" unicode="&#xe80f;" d="M0 850h1000v-1000h-1000z m438-875v156c0 86 69 157 156 157 86 0 156-71 156-157v-156h0c35 0 63 35 63 81v297a156 156 0 0 0-164 71 187 187 0 0 0-149-74 187 187 0 0 0-149 74 156 156 0 0 0-163-71v-297c0-45 28-81 62-81h188z m62 0h188v156c0 52-43 94-94 94-52 0-94-42-94-94v-156z m375 406v-344c0-69-56-125-126-125h-498a125 125 0 0 0-126 125v344a156 156 0 0 0-62 125v157c0 69 56 125 125 125h624c69 0 126-56 126-125v-157c0-51-25-96-63-125z m0 125c0-51-42-93-94-93a93 93 0 0 0-79 44 63 63 0 0 1-50 30l-3 0c-20 0-38-9-50-25a124 124 0 0 0-99-49 124 124 0 0 0-99 49 63 63 0 0 1-50 25l-3 0a63 63 0 0 1-50-30 93 93 0 0 0-79-44c-52 0-94 42-94 93v157c0 34 29 62 63 62h624c35 0 63-29 63-62v-157z" horiz-adv-x="1000" />

<glyph glyph-name="deliver" unicode="&#xe810;" d="M363 406h275m-275-100h275m-275-100h275" horiz-adv-x="1000" />

<glyph glyph-name="success" unicode="&#xe811;" d="M0 850h1000v-1000h-1000z m299-428l-64-77 239-199 432 539-78 63-368-460z" horiz-adv-x="1000" />

<glyph glyph-name="photograph" unicode="&#xe812;" d="M333 683l47 93c20 41 74 74 121 74h165c46 0 101-33 121-74l46-93h250c46 0 84-38 84-83v-667a83 83 0 0 0-84-83h-999a84 84 0 0 0-84 83v667a83 83 0 0 0 84 83h249z m250-666a250 250 0 1 1 0 500 250 250 0 0 1 0-500z m0 166a83 83 0 1 0 0 167 83 83 0 0 0 0-167z" horiz-adv-x="1167" />

<glyph glyph-name="add" unicode="&#xe813;" d="M500-59a409 409 0 1 0 0 818 409 409 0 0 0 0-818z m-34 443h-170a34 34 0 1 1 0-68h170v-170a34 34 0 1 1 68 0v170h171a34 34 0 1 1 0 68h-171v171a34 34 0 1 1-68 0v-171z" horiz-adv-x="1000" />

<glyph glyph-name="not-payed" unicode="&#xe814;" d="" horiz-adv-x="1000" />

<glyph glyph-name="add2" unicode="&#xe815;" d="M0 750c0 55 45 100 100 100h800c55 0 100-45 100-100v-800c0-55-45-100-100-100h-800c-55 0-100 45-100 100v800z m463-362h-188a38 38 0 0 1 0-75h188v-188a38 38 0 0 1 75 0v188h187a38 38 0 0 1 0 75h-187v187a38 38 0 0 1-75 0v-187z" horiz-adv-x="1000" />

<glyph glyph-name="photo" unicode="&#xe816;" d="M0 767c0 46 38 83 84 83h999a84 84 0 0 0 84-83v-834c0-46-38-83-84-83h-999a84 84 0 0 0-84 83v834z m734-366l-234-384h554l-234 384c-24 40-62 39-86 0z m-292 252l-359-636h352s232 384 230 388l-141 249c-22 40-59 39-82-1z" horiz-adv-x="1167" />

<glyph glyph-name="logistics" unicode="&#xe817;" d="M0 850h1000v-1000h-1000z m79-562l65 254c18 66 87 121 156 121h138" horiz-adv-x="1000" />

<glyph glyph-name="edit" unicode="&#xe818;" d="M0 850h1000v-1000h-1000z m917-833a83 83 0 0 0-83-84h-668a83 83 0 0 0-83 84v583c0 46 38 83 84 83h447v-41h-447a42 42 0 0 1-42-42v-583c0-23 19-42 41-42h668c22 0 41 19 41 42v530h42v-530z m0 0a83 83 0 0 0-83-84h-668a83 83 0 0 0-83 84v583c0 46 38 83 84 83h447v-41h-447a42 42 0 0 1-42-42v-583c0-23 19-42 41-42h668c22 0 41 19 41 42v530h42v-530z m-415 299c16 5 42 22 54 33l314 309a40 40 0 0 1 0 58l-5 4a43 43 0 0 1-60 0l-314-308c-12-11-27-36-31-51l-21-68 63 23z m393 434l4-5a82 82 0 0 0 0-117l-314-308c-16-16-47-36-69-44l-102-37c-22-8-34 4-27 26l33 108c6 21 25 52 42 68l314 309a85 85 0 0 0 119 0z" horiz-adv-x="1000" />

<glyph glyph-name="passed" unicode="&#xe819;" d="M0 850h1000v-1000h-1000z m500-857a357 357 0 1 1 0 714 357 357 0 0 1 0-714z m0-72a429 429 0 1 0 0 858 429 429 0 0 0 0-858z m-189 454l-51-50 169-168 311 311-51 50-260-260z" horiz-adv-x="1000" />

<glyph glyph-name="cart" unicode="&#xe81a;" d="M0 850h1000v-1000h-1000z m231-200l60-300h564l64 300h-688z m-51 0h-130a25 25 0 0 0 0 50h900a25 25 0 0 0 25-30l-75-350a25 25 0 0 0-25-20h-574l20-100h529a25 25 0 1 0 0-50h-550a25 25 0 0 0-24 20l-96 480z m220-700a50 50 0 1 1 0 100 50 50 0 0 1 0-100z m0-50a100 100 0 1 0 0 200 100 100 0 0 0 0-200z m350 50a50 50 0 1 1 0 100 50 50 0 0 1 0-100z m0-50a100 100 0 1 0 0 200 100 100 0 0 0 0-200z" horiz-adv-x="1000" />

<glyph glyph-name="arrow" unicode="&#xe81b;" d="M600 350l-504 500-96-95 408-405-408-405 96-95z" horiz-adv-x="600" />

<glyph glyph-name="gift" unicode="&#xe81c;" d="M0 850h1000v-1000h-1000z m881-400c10 0 19 9 19 20v210c0 11-9 20-19 20h-762a20 20 0 0 1-19-20v-210c0-11 9-20 19-20h762z m0-50h-762c-38 0-69 32-69 70v210c0 39 31 70 69 70h762c38 0 69-31 69-70v-210c0-38-31-70-69-70z m-731 0v-367c0-19 12-33 23-33h654c11 0 23 14 23 33v367h-700z m677-450h-654c-40 0-73 37-73 83v417h800v-417c0-46-33-83-73-83z m-353 294a50 50 0 0 0 52 0l74-45v501h-200v-501l74 45z m-124-134v640h300v-640l-150 92-150-92z" horiz-adv-x="1000" />
</font>
</defs>
</svg>
