<?xml version="1.0" standalone="no"?>
<!DOCTYPE svg PUBLIC "-//W3C//DTD SVG 1.1//EN" "http://www.w3.org/Graphics/SVG/1.1/DTD/svg11.dtd" >
<!--
2013-9-30: Created.
-->
<svg>
<metadata>
Created by iconfont
</metadata>
<defs>

<font id="iconfont" horiz-adv-x="1024" >
  <font-face
    font-family="iconfont"
    font-weight="500"
    font-stretch="normal"
    units-per-em="1024"
    ascent="896"
    descent="-128"
  />
    <missing-glyph />
    
    <glyph glyph-name="yinliang" unicode="&#59514;" d="M509.226667 728.277333l-222.442667-184.341333c-16.704-13.866667-43.178667-23.402667-64.896-23.402667H170.730667A42.666667 42.666667 0 0 1 128 477.909333v-187.434666c0-23.466667 19.178667-42.624 42.730667-42.624H221.866667c21.802667 0 48.170667-9.536 64.896-23.402667l222.421333-184.32V728.256zM259.541333 191.573333c-9.045333 7.509333-25.770667 13.589333-37.674666 13.589334H170.730667A85.418667 85.418667 0 0 0 85.333333 290.474667v187.434666A85.333333 85.333333 0 0 0 170.730667 563.2H221.866667c11.776 0 28.629333 6.08 37.674666 13.589333L519.125333 791.893333c18.090667 14.997333 32.746667 8.170667 32.746667-15.402666v-784.64c0-23.488-14.677333-30.378667-32.746667-15.402667L259.562667 191.594667z m436.117334 4.821334a21.333333 21.333333 0 1 0-26.026667 33.834666A196.608 196.608 0 0 1 746.666667 386.496c0 57.408-29.269333 112.32-77.482667 151.637333a21.333333 21.333333 0 1 0 26.965333 33.066667C753.792 524.202667 789.333333 457.514667 789.333333 386.496c0-75.370667-35.050667-144.981333-93.653333-190.08z m64-170.666667a21.333333 21.333333 0 1 0-26.026667 33.834667A414.506667 414.506667 0 0 1 896 388.970667c0 121.642667-61.696 237.354667-162.816 319.829333a21.333333 21.333333 0 1 0 26.965333 33.066667C870.698667 651.690667 938.666667 524.224 938.666667 388.970667a457.173333 457.173333 0 0 0-178.986667-363.221334z"  horiz-adv-x="1024" />

    
    <glyph glyph-name="zanting" unicode="&#58921;" d="M512-128C228.266667-128 0 100.266667 0 384S228.266667 896 512 896s512-228.266667 512-512-228.266667-512-512-512z m0 42.666667c260.266667 0 469.333333 209.066667 469.333333 469.333333S772.266667 853.333333 512 853.333333 42.666667 644.266667 42.666667 384s209.066667-469.333333 469.333333-469.333333z m-106.666667 682.666666c12.8 0 21.333333-8.533333 21.333334-21.333333v-384c0-12.8-8.533333-21.333333-21.333334-21.333333s-21.333333 8.533333-21.333333 21.333333V576c0 12.8 8.533333 21.333333 21.333333 21.333333z m213.333334 0c12.8 0 21.333333-8.533333 21.333333-21.333333v-384c0-12.8-8.533333-21.333333-21.333333-21.333333s-21.333333 8.533333-21.333334 21.333333V576c0 12.8 8.533333 21.333333 21.333334 21.333333z"  horiz-adv-x="1024" />

    
    <glyph glyph-name="kaishi2" unicode="&#58963;" d="M437.527273 598.109091c-20.945455 11.636364-48.872727 11.636364-69.818182 0-20.945455-11.636364-34.909091-34.909091-34.909091-60.509091v-307.2c0-25.6 13.963636-48.872727 34.909091-60.509091 11.636364-6.981818 23.272727-9.309091 34.909091-9.309091s23.272727 2.327273 34.909091 9.309091l267.636363 153.6c20.945455 11.636364 34.909091 34.909091 34.909091 60.509091s-13.963636 48.872727-34.909091 60.509091l-267.636363 153.6z m242.036363-235.054546l-267.636363-153.6c-11.636364-6.981818-20.945455-2.327273-23.272728 0-4.654545 2.327273-11.636364 6.981818-11.636363 20.945455V537.6c0 11.636364 6.981818 18.618182 11.636363 20.945455 2.327273 2.327273 6.981818 2.327273 11.636364 2.327272 2.327273 0 6.981818 0 11.636364-2.327272l267.636363-153.6c11.636364-6.981818 11.636364-16.290909 11.636364-20.945455s0-13.963636-11.636364-20.945455zM923.927273 686.545455c-6.981818 9.309091-23.272727 11.636364-32.581818 4.654545-9.309091-6.981818-11.636364-23.272727-4.654546-32.581818C947.2 579.490909 977.454545 484.072727 977.454545 384c0-256-209.454545-465.454545-465.454545-465.454545S46.545455 128 46.545455 384 256 849.454545 512 849.454545c100.072727 0 195.490909-30.254545 274.618182-90.763636 9.309091-6.981818 25.6-4.654545 32.581818 4.654546s4.654545 25.6-4.654545 32.581818C726.109091 861.090909 621.381818 896 512 896 230.4 896 0 665.6 0 384s230.4-512 512-512 512 230.4 512 512c0 109.381818-34.909091 214.109091-100.072727 302.545455z"  horiz-adv-x="1024" />

    
    <glyph glyph-name="lightauto" unicode="&#59126;" d="M319.968-64c-5.92 0-11.904 1.664-17.184 4.992-12.672 8.064-18.016 23.84-12.896 37.952L402.304 288 160 288c-12.928 0-24.608 7.776-29.568 19.744s-2.208 25.728 6.944 34.88l480 480c12.512 12.512 32.736 12.512 45.248 0s12.512-32.736 0-45.248L237.248 352 448 352c10.432 0 20.224-5.088 26.208-13.664 6.016-8.544 7.424-19.456 3.872-29.28l-78.72-216.448L786.752 480 576 480c-17.696 0-32 14.336-32 32s14.304 32 32 32l288 0c12.928 0 24.64-7.808 29.568-19.744 4.96-11.968 2.208-25.728-6.944-34.88l-544-544C336.448-60.8 328.224-64 319.968-64zM954.08-17.952l-125.344 256c-0.736 1.504-1.984 2.464-2.944 3.808-1.376 1.984-2.56 4.064-4.384 5.728-1.952 1.76-4.256 2.848-6.528 4.096-1.312 0.672-2.272 1.76-3.68 2.272-0.128 0.064-0.288 0.032-0.416 0.064-2.944 1.056-6.016 1.28-9.152 1.472-1.024 0.032-2.048 0.48-3.104 0.448-1.888-0.096-3.68-0.896-5.568-1.344-2.208-0.512-4.512-0.736-6.528-1.728-0.192-0.064-0.384-0.032-0.544-0.128-1.568-0.736-2.592-2.048-3.968-3.04-1.92-1.344-3.936-2.496-5.568-4.288-1.728-1.92-2.784-4.16-3.968-6.368-0.736-1.344-1.856-2.368-2.4-3.84l-95.968-256c-6.176-16.544 2.176-34.976 18.752-41.184C696.512-63.328 700.288-64 704.032-64c12.928 0 25.152 7.904 29.984 20.768L750.176 0l123.84 0 22.56-46.048C902.144-57.408 913.536-64 925.376-64c4.704 0 9.504 1.024 14.016 3.264C955.296-52.96 961.856-33.824 954.08-17.952zM774.176 64l29.728 79.264L842.72 64 774.176 64z"  horiz-adv-x="1024" />

    
    <glyph glyph-name="pick" unicode="&#59427;" d="M892.8 297.6l-51.2 233.6c-9.6 44.8-48 73.6-92.8 73.6H736c-19.2 0-32-12.8-32-32s12.8-32 32-32h12.8c16 0 28.8-9.6 32-25.6l44.8-198.4H672c-9.6 0-19.2-6.4-25.6-12.8L592 224h-160l-54.4 80c-6.4 9.6-16 16-25.6 16H198.4l44.8 198.4c3.2 16 16 25.6 32 25.6H288c19.2 0 32 12.8 32 32s-12.8 32-32 32h-12.8C230.4 608 192 576 182.4 531.2L128 294.4v-12.8l48-236.8C185.6-3.2 224-32 268.8-32H768c44.8 0 83.2 32 92.8 76.8l32 240c3.2 3.2 3.2 9.6 0 12.8zM768 32H268.8c-16 0-28.8 9.6-32 25.6L195.2 256h137.6l54.4-80c6.4-9.6 16-12.8 25.6-12.8H608c9.6 0 19.2 6.4 25.6 12.8l54.4 83.2h137.6l-25.6-204.8c-3.2-12.8-16-22.4-32-22.4zM316.8 640H384v-192c0-19.2 12.8-32 32-32h192c19.2 0 32 12.8 32 32V640h60.8c12.8 0 25.6 9.6 32 22.4 3.2 12.8 0 28.8-12.8 35.2l-185.6 128c-9.6 6.4-25.6 6.4-35.2 0l-195.2-128c-16-6.4-22.4-22.4-19.2-35.2s19.2-22.4 32-22.4zM512 758.4l86.4-57.6c-12.8-3.2-22.4-16-22.4-28.8v-192h-128V672c0 16-9.6 28.8-22.4 32L512 758.4z"  horiz-adv-x="1024" />

    
    <glyph glyph-name="lightforbid" unicode="&#59127;" d="M319.968-64c-5.92 0-11.904 1.664-17.184 4.992-12.672 8.064-18.016 23.84-12.896 37.952L402.304 288 160 288c-12.928 0-24.608 7.776-29.568 19.744s-2.208 25.728 6.944 34.88l480 480c12.512 12.512 32.736 12.512 45.248 0s12.512-32.736 0-45.248L237.248 352 448 352c10.432 0 20.224-5.088 26.208-13.664 6.016-8.544 7.424-19.456 3.872-29.28l-78.72-216.448L786.752 480 576 480c-17.696 0-32 14.336-32 32s14.304 32 32 32l288 0c12.928 0 24.64-7.808 29.568-19.744 4.96-11.968 2.208-25.728-6.944-34.88l-544-544C336.448-60.8 328.224-64 319.968-64zM786.176 223.872c-79.392 0-144-64.608-144-144s64.608-144 144-144 144 64.608 144 144S865.6 223.872 786.176 223.872zM866.176 79.872c0-11.168-2.336-21.792-6.464-31.456l-104.992 104.992c9.696 4.128 20.32 6.464 31.456 6.464C830.304 159.872 866.176 124 866.176 79.872zM706.176 79.872c0 9.408 1.952 18.272 4.896 26.656l101.76-101.76c-8.384-2.976-17.248-4.896-26.656-4.896C742.048-0.128 706.176 35.744 706.176 79.872z"  horiz-adv-x="1024" />

    
    <glyph glyph-name="form_favor_light" unicode="&#59428;" d="M680.533333 21.333333h-469.333333C187.733333 21.333333 170.666667 40.533333 170.666667 64V704c0 23.466667 19.2 42.666667 40.533333 42.666667h558.933333c21.333333 0 40.533333-19.2 40.533334-42.666667v-320c0-12.8 8.533333-21.333333 21.333333-21.333333s21.333333 8.533333 21.333333 21.333333V704c0 46.933333-38.4 85.333333-83.2 85.333333H211.2C164.266667 789.333333 128 750.933333 128 704v-640c0-46.933333 38.4-85.333333 83.2-85.333333H682.666667c12.8 0 21.333333 8.533333 21.333333 21.333333s-10.666667 21.333333-23.466667 21.333333zM633.6 384c0 12.8-8.533333 21.333333-21.333333 21.333333H279.466667c-12.8 0-21.333333-8.533333-21.333334-21.333333s8.533333-21.333333 21.333334-21.333333h334.933333c10.666667 0 19.2 8.533333 19.2 21.333333zM277.333333 213.333333c-12.8 0-21.333333-8.533333-21.333333-21.333333s8.533333-21.333333 21.333333-21.333333h275.2c12.8 0 21.333333 8.533333 21.333334 21.333333s-8.533333 21.333333-21.333334 21.333333H277.333333zM288 586.666667m-32 0a32 32 0 1 1 64 0 32 32 0 1 1-64 0ZM501.333333 586.666667m-32 0a32 32 0 1 1 64 0 32 32 0 1 1-64 0ZM693.333333 586.666667m-32 0a32 32 0 1 1 64 0 32 32 0 1 1-64 0ZM864 317.866667c-25.6 0-49.066667-10.666667-66.133333-27.733334l-8.533334-8.533333-8.533333 8.533333c-17.066667 17.066667-42.666667 27.733333-66.133333 27.733334-53.333333 0-96-44.8-96-98.133334 0-32 14.933333-55.466667 27.733333-70.4l106.666667-110.933333c10.666667-10.666667 21.333333-19.2 36.266666-19.2s25.6 8.533333 36.266667 19.2l106.666667 110.933333s0 2.133333 2.133333 2.133334c12.8 17.066667 27.733333 34.133333 27.733333 68.266666-2.133333 53.333333-44.8 98.133333-98.133333 98.133334z m36.266667-138.666667l-104.533334-108.8c-4.266667-4.266667-4.266667-6.4-6.4-6.4-2.133333 0-4.266667 2.133333-6.4 6.4l-104.533333 108.8c-8.533333 8.533333-17.066667 23.466667-17.066667 40.533333 0 29.866667 23.466667 55.466667 53.333334 55.466667 12.8 0 25.6-6.4 36.266666-14.933333l23.466667-23.466667c4.266667-4.266667 8.533333-6.4 14.933333-6.4 6.4 0 10.666667 2.133333 14.933334 6.4 0 0 19.2 21.333333 23.466666 23.466667 10.666667 10.666667 23.466667 14.933333 36.266667 14.933333 29.866667 0 53.333333-25.6 53.333333-55.466667 0-17.066667-4.266667-25.6-17.066666-40.533333z"  horiz-adv-x="1024" />

    
    <glyph glyph-name="lightfill" unicode="&#59128;" d="M893.6 524.32C888.672 536.256 876.96 544 864.032 544l-248.096 0 55.328 249.12c3.072 13.888-3.36 28.16-15.84 35.008s-27.968 4.704-38.016-5.408l-480-480c-9.152-9.152-11.904-22.976-6.944-34.944S147.104 288 160.032 288l242.304 0-112.384-308.992c-5.12-14.08 0.224-29.856 12.896-37.92 5.28-3.328 11.264-4.96 17.184-4.96 8.256 0 16.48 3.2 22.656 9.376l544 543.968C895.808 498.624 898.56 512.352 893.6 524.32z"  horiz-adv-x="1024" />

    
    <glyph glyph-name="round_comment_light" unicode="&#59429;" d="M529.066667 128c-4.266667 0-10.666667 2.133333-14.933334 6.4l-68.266666 66.133333c-8.533333 8.533333-8.533333 21.333333 0 29.866667 8.533333 8.533333 21.333333 8.533333 29.866666 0l53.333334-51.2 55.466666 51.2c4.266667 4.266667 8.533333 6.4 14.933334 6.4h91.733333c19.2 0 34.133333 14.933333 34.133333 34.133333V541.866667c0 29.866667-19.2 34.133333-19.2 34.133333H349.866667c-29.866667 0-49.066667-12.8-49.066667-34.133333v-270.933334c0-19.2 14.933333-34.133333 34.133333-34.133333H384c12.8 0 21.333333-8.533333 21.333333-21.333333s-8.533333-21.333333-21.333333-21.333334h-51.2c-42.666667 0-76.8 34.133333-76.8 76.8V541.866667c0 36.266667 27.733333 76.8 91.733333 76.8h358.4c21.333333 0 61.866667-23.466667 61.866667-76.8v-270.933334c0-42.666667-34.133333-76.8-76.8-76.8h-83.2l-64-59.733333c-4.266667-4.266667-10.666667-6.4-14.933333-6.4zM426.666667 426.666667m-42.666667 0a42.666667 42.666667 0 1 1 85.333333 0 42.666667 42.666667 0 1 1-85.333333 0ZM597.333333 426.666667m-42.666666 0a42.666667 42.666667 0 1 1 85.333333 0 42.666667 42.666667 0 1 1-85.333333 0ZM512-64C264.533333-64 64 136.533333 64 384S264.533333 832 512 832s448-200.533333 448-448-200.533333-448-448-448z m0 853.333333C288 789.333333 106.666667 608 106.666667 384s181.333333-405.333333 405.333333-405.333333 405.333333 181.333333 405.333333 405.333333S736 789.333333 512 789.333333z"  horiz-adv-x="1024" />

    
    <glyph glyph-name="camerarotate" unicode="&#59129;" d="M864.032 704 512 704c-17.664 0-32-14.336-32-32s14.336-32 32-32l352.032 0C881.696 640 896 625.632 896 608l0-512c0-17.664-14.304-32-31.968-32L160 64c-17.632 0-32 14.336-32 32L128 608c0 17.632 14.368 32 32 32l96 0c17.664 0 32 14.336 32 32S273.664 704 256 704L160 704C107.072 704 64 660.928 64 608l0-512c0-52.928 43.072-96 96-96l704.032 0C916.96 0 960 43.072 960 96L960 608C960 660.928 916.96 704 864.032 704zM320 736l128 0c17.696 0 32 14.304 32 32s-14.304 32-32 32l-128 0C302.304 800 288 785.696 288 768S302.304 736 320 736zM399.84 164.416c5.12-3.008 10.72-4.448 16.256-4.448 10.944 0 21.6 5.632 27.584 15.712 8.992 15.232 3.968 34.848-11.264 43.84-46.656 27.552-75.648 78.336-75.648 132.48s28.96 104.864 75.584 132.416c15.232 8.992 20.256 28.608 11.264 43.84-7.552 12.736-22.4 17.792-36 14.016l-158.048-32.576c-17.312-3.552-28.448-20.48-24.896-37.792 3.136-15.136 16.448-25.536 31.328-25.536 2.144 0 4.32 0.192 6.496 0.672l58.656 12.064C302.88 426.848 292.736 390.016 292.736 352 292.736 275.328 333.76 203.456 399.84 164.416zM621.728 540.672c-15.36 8.768-34.88 3.488-43.68-11.872-8.768-15.328-3.456-34.88 11.872-43.68 47.616-27.296 77.216-78.304 77.216-133.12 0-53.664-28.672-104.096-74.784-131.648-15.2-9.056-20.128-28.704-11.072-43.872 3.424-5.76 8.448-9.824 14.08-12.448 5.312-3.68 11.616-5.792 18.176-5.792 4.064 0 8.16 0.736 12.16 2.4l154.976 63.552c16.352 6.688 24.16 25.376 17.44 41.76-6.688 16.352-25.344 24.256-41.76 17.44l-43.648-17.92c11.776 27.008 18.4 56.352 18.4 86.496C731.136 429.728 689.216 502.016 621.728 540.672z"  horiz-adv-x="1024" />

    
    <glyph glyph-name="phone_light" unicode="&#59430;" d="M358.4 87.466667h14.933333c40.533333 0 155.733333 14.933333 275.2 174.933333 130.133333 172.8 100.266667 302.933333 91.733334 330.666667-12.8 55.466667-64 93.866667-119.466667 91.733333-66.133333-2.133333-117.333333-57.6-115.2-123.733333 0-27.733333 10.666667-53.333333 29.866667-74.666667l2.133333-2.133333c6.4-6.4 12.8-12.8 19.2-17.066667 29.866667-34.133333 6.4-81.066667-19.2-113.066667-34.133333-46.933333-72.533333-64-110.933333-49.066666-21.333333 17.066667-46.933333 25.6-74.666667 23.466666-32 0-61.866667-14.933333-83.2-38.4s-34.133333-53.333333-32-85.333333c0-32 14.933333-61.866667 38.4-83.2 21.333333-21.333333 51.2-32 81.066667-32-2.133333-2.133333 0-2.133333 2.133333-2.133333zM277.333333 204.8c0 21.333333 6.4 40.533333 21.333334 55.466667 14.933333 14.933333 32 23.466667 53.333333 23.466666s38.4-8.533333 49.066667-17.066666c2.133333-2.133333 2.133333-2.133333 4.266666-2.133334 34.133333-12.8 98.133333-23.466667 164.266667 61.866667 66.133333 87.466667 36.266667 142.933333 14.933333 170.666667l-4.266666 4.266666c-4.266667 2.133333-8.533333 6.4-14.933334 12.8-12.8 14.933333-19.2 29.866667-19.2 49.066667-2.133333 42.666667 32 78.933333 74.666667 78.933333 36.266667 0 68.266667-23.466667 76.8-59.733333v-2.133333c6.4-21.333333 34.133333-134.4-83.2-292.266667C492.8 128 384 128 364.8 130.133333h-10.666667c-21.333333 0-40.533333 6.4-55.466666 21.333334-12.8 12.8-21.333333 32-21.333334 53.333333zM512 832C264.533333 832 64 631.466667 64 384c0-85.333333 23.466667-166.4 68.266667-238.933333 6.4-10.666667 19.2-12.8 29.866666-6.4 8.533333 8.533333 12.8 21.333333 6.4 32C128 234.666667 106.666667 309.333333 106.666667 384 106.666667 608 288 789.333333 512 789.333333s405.333333-181.333333 405.333333-405.333333-181.333333-405.333333-405.333333-405.333333c-55.466667 0-106.666667 10.666667-157.866667 32-10.666667 4.266667-23.466667 0-27.733333-10.666667-4.266667-10.666667 0-23.466667 10.666667-27.733333 55.466667-23.466667 113.066667-34.133333 172.8-34.133334 247.466667 0 448 200.533333 448 448C960 631.466667 759.466667 832 512 832z"  horiz-adv-x="1024" />

    
    <glyph glyph-name="light" unicode="&#59130;" d="M319.968-64c-5.92 0-11.904 1.664-17.184 4.992-12.672 8.064-18.016 23.84-12.896 37.952L402.304 288 160 288c-12.928 0-24.608 7.776-29.568 19.744s-2.208 25.728 6.944 34.88l480 480c12.512 12.512 32.736 12.512 45.248 0s12.512-32.736 0-45.248L237.248 352 448 352c10.432 0 20.224-5.088 26.208-13.664 6.016-8.544 7.424-19.456 3.872-29.28l-78.72-216.448L786.752 480 576 480c-17.696 0-32 14.336-32 32s14.304 32 32 32l288 0c12.928 0 24.64-7.808 29.568-19.744 4.96-11.968 2.208-25.728-6.944-34.88l-544-544C336.448-60.8 328.224-64 319.968-64z"  horiz-adv-x="1024" />

    
    <glyph glyph-name="round_down_light" unicode="&#59431;" d="M512 832C264.533333 832 64 631.466667 64 384s200.533333-448 448-448 448 200.533333 448 448S759.466667 832 512 832z m0-853.333333C288-21.333333 106.666667 160 106.666667 384S288 789.333333 512 789.333333s405.333333-181.333333 405.333333-405.333333-181.333333-405.333333-405.333333-405.333333zM665.6 439.466667L512 285.866667l-157.866667 155.733333c-8.533333 8.533333-21.333333 8.533333-29.866666 0-8.533333-8.533333-8.533333-21.333333 0-29.866667l172.8-170.666666c4.266667-4.266667 8.533333-6.4 14.933333-6.4 6.4 0 10.666667 2.133333 14.933333 6.4l168.533334 168.533333c8.533333 8.533333 8.533333 21.333333 0 29.866667-6.4 8.533333-21.333333 8.533333-29.866667 0z"  horiz-adv-x="1024" />

    
    <glyph glyph-name="barcode" unicode="&#59131;" d="M160 352c-17.664 0-32-14.304-32-32l0-320c0-17.696 14.336-32 32-32s32 14.304 32 32L192 320C192 337.696 177.664 352 160 352zM608 352c-17.696 0-32-14.304-32-32l0-320c0-17.696 14.304-32 32-32s32 14.304 32 32L640 320C640 337.696 625.696 352 608 352zM864 352c-17.696 0-32-14.304-32-32l0-320c0-17.696 14.304-32 32-32s32 14.304 32 32L896 320C896 337.696 881.696 352 864 352zM288 352c-17.664 0-32-14.304-32-32l0-224c0-17.696 14.336-32 32-32s32 14.304 32 32l0 224C320 337.696 305.664 352 288 352zM416 352c-17.664 0-32-14.304-32-32l0-224c0-17.696 14.336-32 32-32s32 14.304 32 32l0 224C448 337.696 433.664 352 416 352zM736 352c-17.696 0-32-14.304-32-32l0-224c0-17.696 14.304-32 32-32s32 14.304 32 32l0 224C768 337.696 753.696 352 736 352zM160 544c17.664 0 32 14.336 32 32L192 768c0 17.664-14.336 32-32 32S128 785.664 128 768l0-192C128 558.336 142.336 544 160 544zM288 544c17.664 0 32 14.336 32 32L320 768c0 17.664-14.336 32-32 32S256 785.664 256 768l0-192C256 558.336 270.336 544 288 544zM416 544c17.664 0 32 14.336 32 32L448 768c0 17.664-14.336 32-32 32s-32-14.336-32-32l0-192C384 558.336 398.336 544 416 544zM608 544c17.696 0 32 14.336 32 32L640 768c0 17.664-14.304 32-32 32s-32-14.336-32-32l0-192C576 558.336 590.304 544 608 544zM736 544c17.696 0 32 14.336 32 32L768 768c0 17.664-14.304 32-32 32s-32-14.336-32-32l0-192C704 558.336 718.304 544 736 544zM864 544c17.696 0 32 14.336 32 32L896 768c0 17.664-14.304 32-32 32s-32-14.336-32-32l0-192C832 558.336 846.304 544 864 544zM928 480 96 480c-17.664 0-32-14.336-32-32s14.336-32 32-32l832 0c17.696 0 32 14.336 32 32S945.696 480 928 480z"  horiz-adv-x="1024" />

    
    <glyph glyph-name="friend_settings_light" unicode="&#59432;" d="M797.866667 541.866667c0 157.866667-130.133333 288-288 288S221.866667 699.733333 221.866667 541.866667c0-117.333333 70.4-219.733333 172.8-264.533334-130.133333-42.666667-236.8-153.6-270.933334-296.533333-2.133333-10.666667 4.266667-21.333333 17.066667-23.466667h4.266667c10.666667 0 19.2 6.4 21.333333 17.066667C206.933333 138.66666699999996 349.866667 256 509.866667 256c157.866667-2.133333 288 128 288 285.866667z m-533.333334 0c0 134.4 110.933333 245.333333 245.333334 245.333333s245.333333-110.933333 245.333333-245.333333-110.933333-245.333333-245.333333-245.333334c-136.533333 0-245.333333 110.933333-245.333334 245.333334zM893.866667 72.53333299999997c-2.133333 2.133333-2.133333 4.266667-2.133334 6.4V106.66666699999996c0 2.133333 0 4.266667 2.133334 6.4 6.4 4.266667 12.8 10.666667 17.066666 14.933333 2.133333 2.133333 2.133333 4.266667 2.133334 6.4-6.4 21.333333-17.066667 38.4-29.866667 53.333333-2.133333 2.133333-4.266667 2.133333-6.4 2.133334-6.4-2.133333-14.933333-6.4-21.333333-8.533334-2.133333-2.133333-4.266667 0-6.4 0-8.533333 4.266667-14.933333 8.533333-23.466667 14.933334l-4.266667 4.266666c-2.133333 8.533333-2.133333 14.933333-4.266666 23.466667 0 2.133333-2.133333 4.266667-4.266667 4.266667-6.4 2.133333-14.933333 2.133333-21.333333 4.266666h-21.333334c-6.4-2.133333-12.8-2.133333-19.2-4.266666-4.266667 0-4.266667-2.133333-6.4-6.4 0-6.4-2.133333-14.933333-4.266666-21.333334 0-2.133333-2.133333-4.266667-4.266667-6.4-8.533333-4.266667-17.066667-8.533333-23.466667-12.8-2.133333 0-4.266667-2.133333-6.4 0-6.4 2.133333-14.933333 6.4-21.333333 8.533334-2.133333 2.133333-4.266667 0-6.4-2.133334-14.933333-14.933333-25.6-34.133333-32-53.333333 0-2.133333 0-4.266667 2.133333-6.4 6.4-4.266667 12.8-8.533333 17.066667-14.933333 2.133333-2.133333 2.133333-4.266667 2.133333-6.4v-27.733334c0-2.133333 0-4.266667-2.133333-6.4-6.4-4.266667-10.666667-10.666667-17.066667-14.933333-2.133333-2.133333-2.133333-4.266667-2.133333-6.4 6.4-19.2 17.066667-38.4 29.866667-53.333333 2.133333-2.133333 4.266667-2.133333 6.4-2.133334 6.4 2.133333 14.933333 6.4 21.333333 8.533334h6.4c8.533333-4.266667 17.066667-8.533333 25.6-14.933334 2.133333-2.133333 4.266667-4.266667 4.266667-6.4 2.133333-6.4 2.133333-12.8 2.133333-21.333333 0-4.266667 2.133333-6.4 6.4-6.4 6.4 0 12.8-2.133333 19.2-4.266667h23.466667c6.4 2.133333 10.666667 2.133333 17.066666 4.266667 4.266667 0 4.266667 2.133333 6.4 6.4 0 6.4 2.133333 14.933333 4.266667 21.333333 0 2.133333 2.133333 4.266667 4.266667 6.4 8.533333 4.266667 14.933333 8.533333 23.466666 12.8 2.133333 0 4.266667 2.133333 6.4 0 6.4-2.133333 14.933333-4.266667 21.333334-8.533333 2.133333-2.133333 4.266667 0 6.4 2.133333 14.933333 14.933333 25.6 34.133333 32 53.333334 0 2.133333 0 4.266667-2.133334 4.266666-6.4 8.533333-12.8 12.8-17.066666 19.2z m-113.066667-38.4c-32 0-57.6 25.6-57.6 57.6 0 32 25.6 57.6 57.6 57.6 32 0 57.6-25.6 57.6-57.6 0-32-25.6-57.6-57.6-57.6z"  horiz-adv-x="1024" />

    
    <glyph glyph-name="flashlightclose" unicode="&#59132;" d="M512 224c-17.664 0-32 14.304-32 32l0 96c0 17.664 14.336 32 32 32s32-14.336 32-32l0-96C544 238.304 529.664 224 512 224zM828.16 687.2C822.592 697.536 811.744 704 800 704L224 704C212.192 704 201.344 697.504 195.776 687.104c-5.568-10.4-4.96-23.04 1.6-32.832L320 470.304 320 320l0-32.032L320 32c0-52.928 43.072-96 96-96l192 0c52.928 0 96 43.072 96 96l0 244.864c0 0.16 0 0.32 0 0.48l0 190.624 122.688 186.464C833.12 664.256 833.76 676.832 828.16 687.2zM645.312 495.104C641.92 489.888 640 483.776 640 477.536l0-157.024c0-0.192 0-0.32 0-0.512l0-288c0-17.664-14.336-32-32-32l-192 0c-17.632 0-32 14.336-32 32l0 255.968L384 320l0 160c0 6.304-1.888 12.512-5.376 17.76L283.808 640l456.864 0L645.312 495.104zM608 736l-192 0c-17.664 0-32 14.336-32 32s14.336 32 32 32l192 0c17.696 0 32-14.336 32-32S625.696 736 608 736z"  horiz-adv-x="1024" />

    
    <glyph glyph-name="change" unicode="&#59433;" d="M746.666667 83.20000000000005c-12.8 0-21.333333-8.533333-21.333334-21.333333 0-34.133333-27.733333-61.866667-61.866666-61.866667H192c-34.133333 0-64 27.733333-64 61.866667V535.4666669999999C128 569.6 157.866667 597.333333 192 597.333333c12.8 0 21.333333 8.533333 21.333333 21.333334s-8.533333 21.333333-21.333333 21.333333c-59.733333 0-106.666667-46.933333-106.666667-104.533333V64c0-59.733333 46.933333-106.666667 106.666667-106.666667h471.466667c57.6 0 104.533333 46.933333 104.533333 104.533334 0 12.8-8.533333 21.333333-21.333333 21.333333zM277.333333 128h128c12.8 0 21.333333 8.533333 21.333334 21.333333s-8.533333 21.333333-21.333334 21.333334h-76.8L725.333333 567.4666669999999V490.666667c0-12.8 8.533333-21.333333 21.333334-21.333334s21.333333 8.533333 21.333333 21.333334v128c0 12.8-8.533333 21.333333-21.333333 21.333333h-128c-12.8 0-21.333333-8.533333-21.333334-21.333333s8.533333-21.333333 21.333334-21.333334h74.666666L298.666667 202.66666699999996V277.33333300000004c0 12.8-8.533333 21.333333-21.333334 21.333334s-21.333333-8.533333-21.333333-21.333334v-128c0-12.8 10.666667-21.333333 21.333333-21.333333z m448 469.333333zM834.133333 810.666667H362.666667c-59.733333 0-106.666667-46.933333-106.666667-104.533334v-307.2c0-12.8 8.533333-21.333333 21.333333-21.333333s21.333333 8.533333 21.333334 21.333333V706.133333C298.666667 740.266667 328.533333 768 362.666667 768h471.466666C868.266667 768 896 740.266667 896 706.133333V234.66666699999996c0-34.133333-27.733333-61.866667-61.866667-61.866667h-298.666666c-12.8 0-21.333333-8.533333-21.333334-21.333333s8.533333-21.333333 21.333334-21.333334h298.666666c57.6 0 104.533333 46.933333 104.533334 104.533334V706.133333C938.666667 763.733333 891.733333 810.666667 834.133333 810.666667z"  horiz-adv-x="1024" />

    
    <glyph glyph-name="flashlightopen" unicode="&#59133;" d="M512 224c-17.664 0-32 14.304-32 32l0 96c0 17.664 14.336 32 32 32s32-14.336 32-32l0-96C544 238.304 529.664 224 512 224zM884.896 759.136c-14.048 10.688-34.176 7.872-44.8-6.24l-193.568-256.064C642.336 491.264 640 484.512 640 477.536l0-157.088c0-0.16 0-0.288 0-0.448l0-288c0-17.664-14.336-32-32-32l-192 0c-17.632 0-32 14.336-32 32l0 189.312L384 320l0 160c0 6.848-2.208 13.536-6.304 19.072l-189.856 256C177.344 769.216 157.344 772.192 143.072 761.696 128.896 751.168 125.92 731.136 136.448 716.928L320 469.408 320 320l0-98.688L320 32c0-52.928 43.072-96 96-96l192 0c52.928 0 96 43.072 96 96l0 191.648c0 0.128 0.064 0.224 0.064 0.32l0.064 242.816 187.04 247.488C901.824 728.416 899.04 748.48 884.896 759.136zM512 608c-17.664 0-32 14.336-32 32L480 800c0 17.664 14.336 32 32 32s32-14.336 32-32l0-160C544 622.336 529.664 608 512 608z"  horiz-adv-x="1024" />

    
    <glyph glyph-name="round_list_light" unicode="&#59434;" d="M512 832C264.533333 832 64 631.466667 64 384s200.533333-448 448-448 448 200.533333 448 448S759.466667 832 512 832z m0-853.333333C288-21.333333 106.666667 160 106.666667 384S288 789.333333 512 789.333333s405.333333-181.333333 405.333333-405.333333-181.333333-405.333333-405.333333-405.333333zM746.666667 554.666667H448c-12.8 0-21.333333-8.533333-21.333333-21.333334s8.533333-21.333333 21.333333-21.333333h298.666667c12.8 0 21.333333 8.533333 21.333333 21.333333s-8.533333 21.333333-21.333333 21.333334zM320 533.333333m-42.666667 0a42.666667 42.666667 0 1 1 85.333334 0 42.666667 42.666667 0 1 1-85.333334 0ZM746.666667 405.333333H448c-12.8 0-21.333333-8.533333-21.333333-21.333333s8.533333-21.333333 21.333333-21.333333h298.666667c12.8 0 21.333333 8.533333 21.333333 21.333333s-8.533333 21.333333-21.333333 21.333333zM320 384m-42.666667 0a42.666667 42.666667 0 1 1 85.333334 0 42.666667 42.666667 0 1 1-85.333334 0ZM746.666667 256H448c-12.8 0-21.333333-8.533333-21.333333-21.333333s8.533333-21.333333 21.333333-21.333334h298.666667c12.8 0 21.333333 8.533333 21.333333 21.333334s-8.533333 21.333333-21.333333 21.333333zM320 234.666667m-42.666667 0a42.666667 42.666667 0 1 1 85.333334 0 42.666667 42.666667 0 1 1-85.333334 0Z"  horiz-adv-x="1024" />

    
    <glyph glyph-name="searchlist" unicode="&#59134;" d="M954.4 82.048l-137.664 180.288c48.832 46.656 79.456 112.224 79.456 184.928 0 141.152-114.848 256-256 256s-256-114.848-256-256 114.848-256 256-256c45.472 0 88.096 12.032 125.152 32.896l138.144-180.928c6.304-8.256 15.808-12.608 25.472-12.608 6.752 0 13.6 2.112 19.36 6.56C962.432 47.936 965.12 68.032 954.4 82.048zM448.224 447.296c0 105.888 86.112 192 192 192s192-86.112 192-192-86.112-192-192-192S448.224 341.408 448.224 447.296zM320 576 128 576c-17.664 0-32 14.336-32 32s14.336 32 32 32l192 0c17.664 0 32-14.336 32-32S337.664 576 320 576zM256 320 128 320c-17.664 0-32 14.304-32 32 0 17.664 14.336 32 32 32l128 0c17.664 0 32-14.336 32-32C288 334.304 273.664 320 256 320zM480 96 128 96c-17.664 0-32 14.304-32 32s14.336 32 32 32l352 0c17.664 0 32-14.304 32-32S497.664 96 480 96z"  horiz-adv-x="1024" />

    
    <glyph glyph-name="ticket_fill" unicode="&#59435;" d="M937.6 512l-67.2 70.4c-6.4 6.4-12.8 9.6-22.4 9.6-6.4 0-16-3.2-22.4-9.6-12.8-12.8-32-22.4-51.2-22.4-19.2 0-38.4 9.6-51.2 22.4-12.8 12.8-22.4 32-22.4 54.4 0 19.2 9.6 38.4 22.4 51.2 12.8 12.8 12.8 32 0 44.8l-67.2 70.4c-32 32-86.4 32-118.4 0l-448-432c-16-16-25.6-35.2-25.6-57.6s9.6-44.8 22.4-60.8l67.2-70.4c6.4-6.4 12.8-9.6 22.4-9.6 9.6 0 16 3.2 22.4 9.6 12.8 12.8 32 22.4 54.4 22.4 19.2 0 38.4-9.6 51.2-22.4 12.8-12.8 22.4-32 22.4-54.4 0-19.2-9.6-38.4-22.4-51.2-12.8-12.8-12.8-32 0-44.8l67.2-70.4c16-16 38.4-25.6 60.8-25.6s41.6 6.4 57.6 22.4l444.8 435.2c16 16 25.6 35.2 25.6 57.6 0 25.6-6.4 44.8-22.4 60.8z m-579.2-201.6c-9.6 0-16 3.2-22.4 9.6-12.8 12.8-12.8 32 0 44.8L512 544c12.8 12.8 32 12.8 44.8 0 12.8-12.8 12.8-32 0-44.8L380.8 320c-6.4-6.4-16-9.6-22.4-9.6z m294.4 92.8L476.8 224c-6.4-6.4-16-9.6-22.4-9.6s-16 3.2-22.4 9.6c-12.8 12.8-12.8 32 0 44.8L608 448c12.8 12.8 32 12.8 44.8 0 12.8-12.8 12.8-32 0-44.8z"  horiz-adv-x="1024" />

    
    <glyph glyph-name="service" unicode="&#59135;" d="M835.2 307.2c6.4 16 0 35.2-16 41.6s-35.2 0-41.6-16c-16-28.8-80-44.8-169.6-44.8-19.2 0-32-12.8-32-32s12.8-32 32-32h9.6c83.2 0 185.6 16 217.6 83.2zM905.6 457.6l-41.6 16c-12.8 182.4-166.4 329.6-352 329.6-188.8 0-342.4-150.4-352-336l-19.2-12.8c-6.4-6.4-12.8-16-12.8-25.6v-134.4c0-19.2 12.8-32 32-32s32 12.8 32 32v115.2l19.2 12.8c6.4 6.4 12.8 16 12.8 28.8 0 160 128 288 288 288s288-128 288-288c0-12.8 9.6-25.6 22.4-28.8l41.6-16v-108.8c0-19.2 12.8-32 32-32s32 12.8 32 32v134.4c0 9.6-9.6 22.4-22.4 25.6zM512 246.4c-99.2 0-182.4 80-182.4 182.4 0 99.2 80 182.4 182.4 182.4 99.2 0 182.4-80 182.4-182.4 0-12.8 0-25.6-3.2-38.4-3.2-16 6.4-35.2 25.6-38.4 16-3.2 35.2 6.4 38.4 25.6 3.2 16 6.4 35.2 6.4 51.2 0 134.4-108.8 246.4-246.4 246.4s-246.4-108.8-246.4-246.4c0-86.4 44.8-160 112-204.8-112-38.4-195.2-128-217.6-246.4-3.2-16 6.4-35.2 25.6-38.4h6.4c16 0 28.8 9.6 32 25.6 25.6 131.2 140.8 217.6 288 217.6 19.2 0 32 12.8 32 32-3.2 19.2-16 32-35.2 32zM755.2 185.6c-12.8 9.6-35.2 9.6-44.8-6.4-9.6-12.8-9.6-35.2 6.4-44.8 44.8-35.2 99.2-89.6 115.2-172.8 3.2-16 16-25.6 32-25.6h6.4c16 3.2 28.8 19.2 25.6 38.4-19.2 102.4-86.4 169.6-140.8 211.2z"  horiz-adv-x="1024" />

    
    <glyph glyph-name="round_friend_fill" unicode="&#59436;" d="M512 828.8c-246.4 0-448-201.6-448-448s201.6-448 448-448 448 201.6 448 448c0 249.6-201.6 448-448 448z m115.2-633.6c-3.2-3.2-6.4-6.4-12.8-6.4H304c-3.2 0-9.6 0-9.6 6.4-3.2 3.2-3.2 6.4-3.2 12.8 12.8 60.8 51.2 105.6 105.6 128-38.4 22.4-64 64-64 112 0 70.4 57.6 128 128 128s128-57.6 128-128c0-48-25.6-89.6-64-112 54.4-22.4 96-67.2 108.8-128 0-6.4-3.2-9.6-6.4-12.8z m28.8 134.4c-9.6 0-16 6.4-16 16s6.4 16 16 16c41.6 3.2 70.4 35.2 70.4 76.8 0 38.4-32 73.6-70.4 76.8-9.6 0-16 9.6-16 16 0 9.6 9.6 16 16 16 54.4-3.2 99.2-51.2 99.2-108.8 3.2-57.6-41.6-105.6-99.2-108.8z m108.8-102.4h-3.2c-6.4 0-12.8 6.4-16 12.8-3.2 16-16 35.2-28.8 41.6-6.4 3.2-9.6 12.8-6.4 22.4 3.2 6.4 16 9.6 22.4 6.4 22.4-12.8 38.4-41.6 44.8-64 0-9.6-3.2-19.2-12.8-19.2z"  horiz-adv-x="1024" />

    
    <glyph glyph-name="sort" unicode="&#59136;" d="M384 576l512 0c17.696 0 32 14.336 32 32s-14.304 32-32 32L384 640c-17.664 0-32-14.336-32-32S366.336 576 384 576zM896 416 384 416c-17.664 0-32-14.336-32-32s14.336-32 32-32l512 0c17.696 0 32 14.336 32 32S913.696 416 896 416zM896 192 384 192c-17.664 0-32-14.304-32-32s14.336-32 32-32l512 0c17.696 0 32 14.304 32 32S913.696 192 896 192zM192 608m-64 0a2 2 0 1 0 128 0 2 2 0 1 0-128 0ZM192 384m-64 0a2 2 0 1 0 128 0 2 2 0 1 0-128 0ZM192 160m-64 0a2 2 0 1 0 128 0 2 2 0 1 0-128 0Z"  horiz-adv-x="1024" />

    
    <glyph glyph-name="round_crown_fill" unicode="&#59437;" d="M512 838.4c-246.4 0-448-201.6-448-448s201.6-448 448-448 448 201.6 448 448-201.6 448-448 448zM732.8 448l-9.6-230.4c0-6.4-3.2-9.6-6.4-12.8-3.2 0-60.8-38.4-198.4-38.4-137.6 0-198.4 35.2-198.4 38.4-3.2 3.2-6.4 6.4-6.4 12.8L294.4 448c-19.2 9.6-28.8 28.8-28.8 51.2 0 32 25.6 57.6 57.6 57.6s57.6-25.6 57.6-57.6c0-28.8-19.2-51.2-44.8-57.6 19.2-38.4 51.2-83.2 73.6-83.2 12.8 0 41.6 35.2 76.8 131.2-22.4 9.6-38.4 32-38.4 60.8 0 35.2 28.8 64 67.2 64s64-28.8 64-64c0-25.6-16-48-38.4-60.8 32-89.6 64-134.4 80-134.4s48 41.6 70.4 89.6c-25.6 6.4-44.8 28.8-44.8 57.6 0 32 25.6 57.6 57.6 57.6s57.6-25.6 57.6-57.6c0-25.6-12.8-44.8-28.8-54.4z"  horiz-adv-x="1024" />

    
    <glyph glyph-name="1212" unicode="&#59138;" d="M32 64c-17.664 0-32 14.304-32 32L0 672c0 17.664 14.336 32 32 32s32-14.336 32-32l0-576C64 78.304 49.664 64 32 64zM448.704 63.744 160.96 63.744c-17.632 0-31.936 14.24-32 31.872L128 351.872C128 390.272 153.728 416 192 416l224 0L416 639.712 160 640C142.336 640 128 654.336 128 672s14.336 32 32 32l256 0c38.272 0 64-25.728 64-64l0-256c0-17.664-14.336-32-32-32L192.32 352l0.576-224.256 255.84 0c17.664 0 32-14.304 32-32S466.4 63.744 448.704 63.744zM577.408 64c-17.696 0-32 14.304-32 32L545.408 672c0 17.664 14.304 32 32 32s32-14.336 32-32l0-576C609.408 78.304 595.104 64 577.408 64zM994.112 63.744l-287.744 0c-17.632 0-31.936 14.24-32 31.872l-0.96 256.256c0 38.4 25.728 64.128 64 64.128l224 0L961.408 639.712l-256 0.288c-17.696 0-32 14.336-32 32s14.304 32 32 32l256 0c38.272 0 64-25.728 64-64l0-256c0-17.664-14.304-32-32-32l-255.68 0 0.576-224.256 255.84 0c17.696 0 32-14.304 32-32S1011.808 63.744 994.112 63.744z"  horiz-adv-x="1027" />

    
    <glyph glyph-name="round_link_fill" unicode="&#59438;" d="M515.2 832c-246.4 0-448-198.4-448-444.8S268.8-57.6 512-57.6c246.4 0 444.8 201.6 444.8 444.8S758.4 832 515.2 832z m-118.4-441.6c-9.6-9.6-28.8-9.6-41.6 0l-22.4 25.6-12.8 9.6c-19.2 22.4-32 48-35.2 76.8 0 28.8 9.6 57.6 28.8 76.8 22.4 19.2 48 28.8 76.8 28.8 28.8 0 60.8-12.8 83.2-35.2l86.4-86.4c22.4-22.4 35.2-51.2 35.2-80 0-25.6-9.6-51.2-28.8-70.4-9.6-9.6-28.8-9.6-41.6 0-9.6 9.6-9.6 28.8 0 38.4 19.2 19.2 16 51.2-3.2 73.6l-86.4 86.4c-12.8 12.8-25.6 19.2-41.6 19.2-9.6 0-22.4-3.2-32-12.8-12.8-12.8-12.8-25.6-12.8-35.2 0-12.8 6.4-28.8 19.2-38.4l12.8-12.8 22.4-22.4c3.2-12.8 3.2-28.8-6.4-41.6z m307.2-201.6c-19.2-19.2-44.8-28.8-73.6-28.8-28.8 0-60.8 12.8-83.2 35.2l-86.4 86.4c-22.4 22.4-35.2 51.2-35.2 80 0 25.6 9.6 51.2 28.8 70.4 9.6 9.6 28.8 9.6 41.6 0 9.6-9.6 9.6-28.8 0-38.4-19.2-19.2-16-51.2 3.2-73.6l86.4-86.4c12.8-12.8 25.6-19.2 41.6-19.2 9.6 0 22.4 3.2 32 12.8 12.8 12.8 12.8 25.6 12.8 35.2 0 12.8-6.4 28.8-19.2 38.4l-25.6 25.6-9.6 9.6c-9.6 9.6-9.6 28.8 0 38.4 9.6 9.6 28.8 9.6 41.6 0l12.8-12.8 19.2-19.2c22.4-19.2 35.2-48 35.2-73.6 9.6-32-3.2-57.6-22.4-80z"  horiz-adv-x="1024" />

    
    <glyph glyph-name="down" unicode="&#59139;" d="M792.832 410.144c-12.512 12.544-32.8 12.48-45.248 0.032L544 207.008 544 768c0 17.664-14.336 32-32 32s-32-14.336-32-32l0-563.04-234.048 235.456c-12.48 12.576-32.704 12.64-45.248 0.128-12.544-12.448-12.608-32.704-0.128-45.248l287.52-289.248c3.168-3.2 6.88-5.536 10.816-7.136C502.912 97.12 507.296 96 512 96c11.296 0 20.704 6.176 26.4 14.976l254.368 253.952C805.312 377.376 805.312 397.632 792.832 410.144zM864-32 160-32c-17.664 0-32 14.304-32 32s14.336 32 32 32l704 0c17.696 0 32-14.304 32-32S881.696-32 864-32z"  horiz-adv-x="1024" />

    
    <glyph glyph-name="round_light_fill" unicode="&#59439;" d="M515.2 832c-246.4 0-448-198.4-448-444.8S268.8-57.6 512-57.6c246.4 0 444.8 201.6 444.8 444.8C960 633.6 758.4 832 515.2 832z m208-396.8l-310.4-310.4c-3.2-3.2-9.6-6.4-12.8-6.4-3.2 0-6.4 0-9.6 3.2-6.4 3.2-9.6 12.8-6.4 22.4l64 176H307.2c-6.4 0-12.8 3.2-16 12.8s0 16 3.2 19.2l275.2 275.2c6.4 6.4 16 6.4 22.4 3.2 6.4-3.2 9.6-12.8 9.6-19.2l-32-140.8h140.8c6.4 0 12.8-3.2 16-12.8 3.2-9.6 0-19.2-3.2-22.4z"  horiz-adv-x="1024" />

    
    <glyph glyph-name="mobile" unicode="&#59140;" d="M736-96 288-96c-52.928 0-96 43.072-96 96L192 768c0 52.928 43.072 96 96 96l448 0c52.928 0 96-43.072 96-96l0-768C832-52.928 788.928-96 736-96zM288 800C270.368 800 256 785.632 256 768l0-768c0-17.664 14.368-32 32-32l448 0c17.664 0 32 14.336 32 32L768 768c0 17.632-14.336 32-32 32L288 800zM512-0.416c-35.296 0-64 28.704-64 64s28.704 64 64 64c35.296 0 64-28.704 64-64S547.296-0.416 512-0.416zM512.032 63.584c0 0-0.064 0-0.064-0.032L512 31.584 512.032 63.584zM704 160 320 160c-17.664 0-32 14.304-32 32L288 736c0 17.664 14.336 32 32 32l384 0c17.696 0 32-14.336 32-32l0-544C736 174.304 721.696 160 704 160zM352 224l320 0L672 704 352 704 352 224z"  horiz-adv-x="1024" />

    
    <glyph glyph-name="round_favor_fill" unicode="&#59440;" d="M515.2 828.8c-246.4 0-448-201.6-448-448s201.6-448 448-448 448 201.6 448 448-201.6 448-448 448z m214.4-425.6l-86.4-86.4 19.2-121.6c3.2-12.8-3.2-25.6-12.8-32-6.4-3.2-12.8-6.4-19.2-6.4-6.4 0-9.6 0-16 3.2L512 217.6 409.6 160c-9.6-6.4-22.4-6.4-35.2 3.2-9.6 6.4-16 19.2-12.8 32l19.2 121.6-83.2 86.4c-9.6 9.6-12.8 22.4-6.4 32 3.2 12.8 12.8 19.2 25.6 22.4l115.2 16 51.2 112c6.4 9.6 16 19.2 28.8 19.2s22.4-6.4 28.8-19.2l51.2-112 115.2-19.2c12.8-3.2 22.4-9.6 25.6-22.4 6.4-6.4 6.4-19.2-3.2-28.8z"  horiz-adv-x="1024" />

    
    <glyph glyph-name="mobilefill" unicode="&#59141;" d="M512 31.584 512.032 63.584 511.968 63.552ZM736 832 288 832C252.672 832 224 803.328 224 768l0-768c0-35.328 28.672-64 64-64l448 0c35.328 0 64 28.672 64 64L800 768C800 803.328 771.328 832 736 832zM512-0.416c-35.296 0-64 28.704-64 64s28.704 64 64 64c35.296 0 64-28.704 64-64S547.296-0.416 512-0.416zM704 192 320 192 320 736l384 0L704 192z"  horiz-adv-x="1024" />

    
    <glyph glyph-name="round_menu_fill" unicode="&#59441;" d="M515.2 828.8c-246.4 0-448-201.6-448-448s201.6-448 448-448 448 201.6 448 448-201.6 448-448 448z m160-604.8h-320c-19.2 0-32 12.8-32 32s12.8 32 32 32h320c19.2 0 32-12.8 32-32s-16-32-32-32z m0 124.8h-320c-19.2 0-32 12.8-32 32s12.8 32 32 32h320c19.2 0 32-12.8 32-32s-16-32-32-32z m0 131.2h-320c-19.2 0-32 12.8-32 32s12.8 32 32 32h320c19.2 0 32-12.8 32-32s-16-32-32-32z"  horiz-adv-x="1024" />

    
    <glyph glyph-name="copy" unicode="&#59142;" d="M672 64 224 64c-52.928 0-96 43.072-96 96L128 736c0 52.928 43.072 96 96 96l448 0c52.928 0 96-43.072 96-96l0-576C768 107.072 724.928 64 672 64zM224 768C206.368 768 192 753.632 192 736l0-576c0-17.664 14.368-32 32-32l448 0c17.664 0 32 14.336 32 32L704 736c0 17.632-14.336 32-32 32L224 768zM800-64 320-64c-17.664 0-32 14.304-32 32s14.336 32 32 32l480 0c17.664 0 32 14.336 32 32L832 640c0 17.664 14.304 32 32 32s32-14.336 32-32l0-608C896-20.928 852.928-64 800-64zM544 576 288 576c-17.664 0-32 14.336-32 32s14.336 32 32 32l256 0c17.696 0 32-14.336 32-32S561.696 576 544 576zM608 416 288.032 416c-17.664 0-32 14.336-32 32s14.336 32 32 32L608 480c17.696 0 32-14.336 32-32S625.696 416 608 416zM608 256 288 256c-17.664 0-32 14.304-32 32s14.336 32 32 32l320 0c17.696 0 32-14.304 32-32S625.696 256 608 256z"  horiz-adv-x="1024" />

    
    <glyph glyph-name="round_location_fill" unicode="&#59442;" d="M515.2 828.8c-246.4 0-448-201.6-448-448s201.6-448 448-448 448 201.6 448 448c0 249.6-201.6 448-448 448z m73.6-620.8l-60.8-70.4c-3.2-3.2-9.6-6.4-12.8-6.4-6.4 0-9.6 3.2-12.8 6.4-6.4 9.6-188.8 198.4-188.8 304 0 112 89.6 201.6 201.6 201.6s201.6-89.6 201.6-201.6c-3.2-54.4-44.8-131.2-128-233.6zM512 441.6m-92.8 0a92.8 92.8 0 1 1 185.6 0 92.8 92.8 0 1 1-185.6 0Z"  horiz-adv-x="1024" />

    
    <glyph glyph-name="countdownfill" unicode="&#59143;" d="M576 736l-128 0c-17.664 0-32 14.336-32 32s14.336 32 32 32l128 0c17.696 0 32-14.336 32-32S593.696 736 576 736zM818.976 549.728l35.648 35.648c12.512 12.512 12.512 32.736 0 45.248s-32.736 12.512-45.248 0l-32.896-32.896C707.52 663.392 614.496 704 512 704 300.256 704 128 531.744 128 320c0-211.744 172.256-384 384-384 211.744 0 384 172.256 384 384C896 406.176 867.104 485.568 818.976 549.728zM480 640c0 17.664 14.336 32 32 32s32-14.336 32-32l0-32c0-17.664-14.336-32-32-32s-32 14.336-32 32L480 640zM224 288 192 288c-17.664 0-32 14.304-32 32s14.336 32 32 32l32 0c17.664 0 32-14.304 32-32S241.664 288 224 288zM544 0c0-17.696-14.336-32-32-32s-32 14.304-32 32l0 32c0 17.696 14.336 32 32 32s32-14.304 32-32L544 0zM692 423.008l-160-128C526.08 290.272 519.04 288 512 288c-9.376 0-18.688 4.096-24.992 12-11.04 13.824-8.8 33.952 4.992 44.992l160 128c13.856 11.072 33.952 8.8 44.992-4.992C708.032 454.176 705.792 434.048 692 423.008zM832 288l-32 0c-17.696 0-32 14.304-32 32s14.304 32 32 32l32 0c17.696 0 32-14.304 32-32S849.696 288 832 288z"  horiz-adv-x="1024" />

    
    <glyph glyph-name="round_pay_fill" unicode="&#59443;" d="M512 832C265.6 832 64 630.4 64 384s201.6-448 448-448 448 201.6 448 448S758.4 832 512 832z m160-604.8h-288c-54.4 0-96 35.2-96 83.2v89.6c0 44.8 41.6 83.2 96 83.2h192l-51.2 38.4c-12.8 9.6-16 32-6.4 44.8 9.6 12.8 32 16 44.8 6.4l128-96c9.6-9.6 16-22.4 12.8-35.2-3.2-12.8-16-22.4-32-22.4h-288c-19.2 0-32-9.6-32-19.2v-89.6c0-6.4 12.8-19.2 32-19.2h288c19.2 0 32-12.8 32-32s-12.8-32-32-32z"  horiz-adv-x="1024" />

    
    <glyph glyph-name="countdown" unicode="&#59144;" d="M576 736l-128 0c-17.664 0-32 14.336-32 32s14.336 32 32 32l128 0c17.696 0 32-14.336 32-32S593.696 736 576 736zM818.976 549.728l35.648 35.648c12.512 12.512 12.512 32.736 0 45.248s-32.736 12.512-45.248 0l-32.896-32.896C707.52 663.392 614.496 704 512 704 300.256 704 128 531.744 128 320c0-211.744 172.256-384 384-384 211.744 0 384 172.256 384 384C896 406.176 867.104 485.568 818.976 549.728zM544 1.632 544 32c0 17.696-14.336 32-32 32s-32-14.304-32-32l0-30.368C329.056 16.672 208.672 137.056 193.632 288L224 288c17.664 0 32 14.304 32 32s-14.336 32-32 32L193.632 352C208.672 502.944 329.056 623.328 480 638.368L480 608c0-17.664 14.336-32 32-32s32 14.336 32 32L544 638.368c150.944-15.072 271.328-135.424 286.368-286.368L800 352c-17.696 0-32-14.304-32-32s14.304-32 32-32l30.368 0C815.328 137.056 694.944 16.672 544 1.632zM652 472.992l-160-128c-13.824-11.072-16.032-31.2-4.992-44.992C493.344 292.096 502.624 288 512 288c7.008 0 14.08 2.272 19.968 7.008l160 128c13.792 11.04 16.032 31.168 4.992 44.96C685.952 481.792 665.856 484.064 652 472.992z"  horiz-adv-x="1024" />

    
    <glyph glyph-name="round_like_fill" unicode="&#59444;" d="M515.2 828.8c-246.4 0-448-201.6-448-448s201.6-448 448-448 448 201.6 448 448-201.6 448-448 448zM704 332.8l-150.4-153.6c-12.8-12.8-25.6-19.2-41.6-19.2s-28.8 6.4-41.6 19.2l-147.2 153.6C307.2 352 288 380.8 288 419.2c0 67.2 54.4 121.6 118.4 121.6 32 0 60.8-12.8 83.2-35.2l22.4-22.4c9.6 9.6 19.2 22.4 22.4 22.4 22.4 22.4 51.2 35.2 83.2 35.2 67.2 0 118.4-54.4 118.4-121.6 3.2-41.6-12.8-64-32-86.4z"  horiz-adv-x="1024" />

    
    <glyph glyph-name="noticefill" unicode="&#59145;" d="M889.92 146.272c-1.184 1.664-119.232 165.888-119.232 287.392 0 168.448-76.16 254.784-162.688 287.008L608 736c0 52.928-43.072 96-96 96s-96-43.072-96-96l0-15.296c-86.528-32.224-162.688-118.56-162.688-287.008 0-121.216-118.016-285.248-119.2-286.88-5.408-7.456-7.36-16.928-5.312-25.952 2.048-8.96 7.872-16.672 16-21.024 5.664-3.072 107.392-57.28 233.536-84.512C399.744-51.072 452.16-96 512-96s112.256 44.928 133.632 111.296c126.112 27.104 227.84 80.992 233.504 84.032 8.16 4.352 14.016 12.032 16.064 21.024S895.328 138.816 889.92 146.272zM480 736c0 17.632 14.368 32 32 32s32-14.368 32-32l0-0.928C536.832 735.68 529.728 736 522.688 736l-21.376 0C494.272 736 487.168 735.68 480 735.072L480 736zM512-32c-22.336 0-43.136 13.408-57.984 35.296C473.216 1.28 492.608 0 512 0s38.784 1.28 57.984 3.296C555.136-18.624 534.304-32 512-32z"  horiz-adv-x="1024" />

    
    <glyph glyph-name="round_people_fill" unicode="&#59445;" d="M515.2 832c-246.4 0-448-198.4-448-444.8S268.8-57.6 512-57.6c246.4 0 444.8 201.6 444.8 444.8S758.4 832 515.2 832z m185.6-656c-3.2-6.4-9.6-6.4-12.8-6.4h-352c-6.4 0-9.6 3.2-12.8 6.4-3.2 3.2-6.4 9.6-3.2 12.8 12.8 67.2 60.8 121.6 121.6 144-44.8 25.6-73.6 70.4-73.6 124.8 0 80 64 144 144 144s144-64 144-144c0-54.4-32-102.4-73.6-124.8 60.8-25.6 108.8-76.8 121.6-144 3.2-3.2 0-9.6-3.2-12.8z"  horiz-adv-x="1024" />

    
    <glyph glyph-name="notice" unicode="&#59146;" d="M889.92 146.272c-1.184 1.632-119.232 166.144-119.232 287.392 0 168.448-76.16 254.784-162.688 287.008L608 736c0 52.928-43.072 96-96 96s-96-43.072-96-96l0-16.576c-10.784-7.904-16.096-21.792-11.808-35.232 5.376-16.832 23.424-26.048 40.224-20.736C462.176 669.12 481.344 672 501.312 672l21.376 0c115.232 0 184-89.088 184-238.304 0-108.032 72.896-235.392 110.176-293.504C759.488 114.016 633.824 64 512 64c-121.504 0-247.424 50.368-304.832 76.64 37.312 57.984 110.144 185.024 110.144 293.056 0 62.432 11.616 114.208 34.528 153.92 8.832 15.328 3.584 34.88-11.712 43.712-15.392 8.864-34.88 3.584-43.712-11.712-28.608-49.536-43.104-112.096-43.104-185.92 0-121.216-118.016-285.248-119.2-286.88-5.408-7.456-7.36-16.928-5.312-25.952 2.048-8.96 7.872-16.672 16-21.024 5.664-3.072 107.392-57.28 233.536-84.512C399.744-51.072 452.16-96 512-96s112.256 44.928 133.632 111.296c126.112 27.104 227.84 80.992 233.504 84.032 8.128 4.352 14.016 12.032 16.064 21.024S895.328 138.784 889.92 146.272zM501.312 736C494.048 736 487.104 735.008 480 734.432L480 736c0 17.632 14.368 32 32 32s32-14.368 32-32l0-0.928C536.832 735.68 529.728 736 522.688 736L501.312 736zM512-32c-22.336 0-43.136 13.408-57.984 35.296C473.216 1.28 492.608 0 512 0s38.784 1.28 57.984 3.296C555.136-18.624 534.304-32 512-32z"  horiz-adv-x="1024" />

    
    <glyph glyph-name="round_pay" unicode="&#59446;" d="M512 832C265.6 832 64 630.4 64 384s201.6-448 448-448 448 201.6 448 448S758.4 832 512 832z m0-832C300.8 0 128 172.8 128 384S300.8 768 512 768s384-172.8 384-384-172.8-384-384-384zM672 288h-288c-19.2 0-32 9.6-32 19.2v89.6c0 6.4 12.8 19.2 32 19.2h288c12.8 0 25.6 9.6 32 22.4 3.2 12.8 0 28.8-12.8 35.2l-128 96c-12.8 9.6-35.2 6.4-44.8-6.4-9.6-12.8-6.4-35.2 6.4-44.8L576 480h-192c-54.4 0-96-35.2-96-83.2v-89.6c0-44.8 41.6-83.2 96-83.2h288c19.2 0 32 12.8 32 32s-16 32-32 32z"  horiz-adv-x="1024" />

    
    <glyph glyph-name="qiang" unicode="&#59147;" d="M618.464 196.64l-14.272-69.76 191.232 0c49.952 1.056 58.272 21.568 73.728 72.928l59.008 279.488L469.856 479.296 392 69.888c-7.04-46.048 13.696-69.12 62.016-69.12l382.72 0 89.984 62.112L566.112 62.88c-27.2-5.152-36.192 10.88-27.136 41.568l61.632 311.488 174.688 0-38.944-187.328c-9.568-26.432-18.88-30.56-48.32-32L618.464 196.608zM387.712 413.824l34.208 7.648 22.176 101.312-34.144-7.648 13.6 98.112 31.68 0 10.56 73.728-31.712 0 10.528 49.056L286.464 736.032l-10.56-49.056L180.96 686.976 170.368 613.248l94.976 0-21.12-147.392-99.744-27.488-22.112-101.312 99.68 26.848-32.48-259.424c-0.288-30.688-12.128-43.52-35.52-38.368L88.096 66.112l-55.968-65.312 237.28 0c45.376-5.056 69.632 16.672 72.544 65.312L387.712 413.824zM575.232 736.032l-95.68-224.576 126.528 0 79.488 150.912 60.256 0 36.416-150.912 143.52 0-53.408 224.576L575.232 736.032z"  horiz-adv-x="1024" />

    
    <glyph glyph-name="round_rank_fill" unicode="&#59447;" d="M512 832C265.6 832 64 633.6 64 384s201.6-448 448-448 448 201.6 448 448S758.4 832 512 832z m-96-592c0-25.6-22.4-48-48-48s-48 22.4-48 48v188.8c0 25.6 22.4 48 48 48s48-22.4 48-48v-188.8z m144 0c0-25.6-22.4-48-48-48s-48 22.4-48 48v128c0 25.6 22.4 48 48 48s48-22.4 48-48v-128z m144-3.2c0-25.6-22.4-48-48-48s-48 22.4-48 48v256c0 25.6 22.4 48 48 48s48-22.4 48-48v-256z"  horiz-adv-x="1024" />

    
    <glyph glyph-name="upstagefill" unicode="&#59150;" d="M928 608l-98.784 0c1.696 21.888 2.848 44.064 2.848 66.816 0 19.264-0.832 39.872-2.592 62.976-1.248 16.672-15.168 29.6-31.904 29.6L226.56 767.392c-16.736 0-30.656-12.928-31.904-29.6C192.896 714.112 192.064 694.112 192.064 674.816c0-22.752 1.152-44.928 2.848-66.816L96 608c-17.664 0-32-14.336-32-32 0-131.904 78.944-224 192-224 1.6 0 2.976 0.672 4.512 0.896 52.064-106.464 129.856-177.952 219.744-191.648C480.224 160.8 480 160.448 480 160l0-128-128 0c-17.664 0-32-14.304-32-32s14.336-32 32-32l320 0c17.696 0 32 14.304 32 32s-14.304 32-32 32l-128 0 0 128c0 0.448-0.224 0.8-0.256 1.248 89.952 13.664 167.744 85.12 219.872 191.648C765.12 352.672 766.432 352 768 352c113.024 0 192 92.096 192 224C960 593.664 945.696 608 928 608zM130.208 544l72.224 0c6.976-44.608 17.344-86.72 30.848-125.568C177.824 428.544 139.264 475.36 130.208 544zM790.848 418.464c13.536 38.816 23.84 80.96 30.848 125.536l72.128 0C884.736 475.424 846.24 428.608 790.848 418.464z"  horiz-adv-x="1024" />

    
    <glyph glyph-name="round_redpacket_fill" unicode="&#59448;" d="M515.2 828.8c-246.4 0-448-201.6-448-448s201.6-448 448-448 448 201.6 448 448-201.6 448-448 448zM704 204.8c0-25.6-22.4-48-48-48h-288c-25.6 0-48 22.4-48 48v240c0 3.2 3.2 9.6 6.4 12.8s9.6 3.2 12.8 3.2l172.8-32 172.8 32c3.2 0 9.6 0 12.8-3.2 3.2-3.2 6.4-6.4 6.4-12.8v-240z m0 304c0-6.4-6.4-12.8-12.8-16l-172.8-32h-3.2-3.2l-179.2 32c-6.4 0-12.8 9.6-12.8 16v48c0 25.6 22.4 48 48 48h288c25.6 0 48-22.4 48-48v-48zM556.8 284.8h-32v22.4h32c9.6 0 16 6.4 16 16s-6.4 16-16 16h-9.6l19.2 19.2c6.4 6.4 6.4 16 0 22.4-6.4 6.4-16 6.4-22.4 0l-32-35.2-32 35.2c-6.4 6.4-16 6.4-22.4 0s-6.4-16 0-22.4l16-19.2h-9.6c-9.6 0-16-6.4-16-16s6.4-16 16-16h32v-22.4h-32c-9.6 0-16-6.4-16-16s6.4-16 16-16h32v-25.6c0-9.6 6.4-16 16-16s16 6.4 16 16v25.6h32c9.6 0 16 6.4 16 16s-9.6 16-19.2 16z"  horiz-adv-x="1024" />

    
    <glyph glyph-name="upstage" unicode="&#59151;" d="M928 608l-98.784 0c1.696 21.888 2.848 44.064 2.848 66.816 0 19.264-0.832 39.872-2.592 62.976-1.248 16.672-15.168 29.6-31.904 29.6L226.56 767.392c-16.736 0-30.656-12.928-31.904-29.6C192.896 714.112 192.064 694.112 192.064 674.816c0-22.752 1.152-44.928 2.848-66.816L96 608c-17.664 0-32-14.336-32-32 0-131.904 78.944-224 192-224 1.6 0 2.976 0.672 4.512 0.896 52.064-106.464 129.856-177.952 219.744-191.648C480.224 160.8 480 160.448 480 160l0-128-128 0c-17.664 0-32-14.304-32-32s14.336-32 32-32l320 0c17.696 0 32 14.304 32 32s-14.304 32-32 32l-128 0 0 128c0 0.448-0.224 0.8-0.256 1.248 89.952 13.664 167.744 85.12 219.872 191.648C765.12 352.672 766.432 352 768 352c113.024 0 192 92.096 192 224C960 593.664 945.696 608 928 608zM130.208 544l72.224 0c6.976-44.608 17.344-86.72 30.848-125.568C177.824 428.544 139.264 475.36 130.208 544zM512.064 222.752c-138.752 0-256 207.008-256 452.064 0 9.184 0.192 18.56 0.64 28.576l510.72 0c0.416-9.984 0.64-19.456 0.64-28.576C768.064 429.76 650.848 222.752 512.064 222.752zM790.848 418.464c13.536 38.816 23.84 80.96 30.848 125.536l72.128 0C884.736 475.424 846.24 428.608 790.848 418.464z"  horiz-adv-x="1024" />

    
    <glyph glyph-name="round_skin_fill" unicode="&#59449;" d="M515.2 828.8c-246.4 0-448-201.6-448-448s201.6-448 448-448 448 201.6 448 448-198.4 448-448 448z m233.6-396.8c-16-16-32-28.8-48-44.8-6.4-6.4-12.8-16-22.4-16-12.8-3.2-22.4 6.4-28.8 12.8-3.2 3.2-3.2 6.4-6.4 6.4v-208c0-6.4-3.2-9.6-6.4-12.8-9.6-6.4-25.6-6.4-41.6-6.4h-160c-12.8 0-22.4 0-32 3.2-3.2 3.2-6.4 6.4-9.6 12.8v211.2c-6.4-6.4-12.8-12.8-22.4-16-6.4-3.2-16 0-22.4 3.2l-9.6 9.6c-6.4 6.4-12.8 12.8-22.4 19.2l-9.6 9.6-12.8 12.8c-3.2 6.4-9.6 9.6-12.8 16 0 3.2-3.2 6.4-3.2 12.8 3.2 9.6 9.6 16 16 22.4l12.8 12.8 67.2 64c3.2 3.2 6.4 9.6 12.8 12.8 6.4 6.4 9.6 16 22.4 16h41.6c3.2-3.2 6.4-3.2 9.6-6.4l9.6-9.6c3.2-6.4 9.6-9.6 16-12.8 6.4-3.2 16-6.4 22.4-6.4h22.4c16 3.2 25.6 6.4 35.2 16 3.2 3.2 6.4 9.6 9.6 12.8 3.2 3.2 3.2 3.2 6.4 3.2s3.2 0 6.4 3.2h12.8c9.6 0 28.8 3.2 35.2-3.2 6.4-3.2 9.6-6.4 12.8-12.8l16-16c19.2-19.2 38.4-35.2 57.6-54.4l19.2-19.2c3.2-6.4 9.6-9.6 12.8-16v-3.2c3.2-16 0-22.4-6.4-28.8z"  horiz-adv-x="1024" />

    
    <glyph glyph-name="babyfill" unicode="&#59152;" d="M802.752 576.608c-5.312 5.312-11.168 9.824-17.344 13.824C794.24 604.928 799.616 621.792 799.616 640L799.616 672c0 52.928-43.072 96-96 96l-110.368-0.032c-10.176 1.728-38.688 26.88-58.656 51.776-6.272 7.84-16.192 12.352-25.92 12-10.048-0.288-19.36-5.28-25.184-13.472C466.944 794.88 442.528 770.368 435.104 768L320 768C267.072 768 224 724.928 224 672l0-32c0-17.952 5.28-34.592 13.888-48.96-28.064-18.112-46.528-50.016-46.56-87.424L191.36 37.024c0-27.584 10.688-53.568 30.176-73.056 19.488-19.52 45.408-30.272 73.12-30.272l434.88 0c0.032 0 0.16 0 0.192 0 27.584 0 53.504 10.752 72.992 30.272 19.488 19.488 30.208 45.472 30.176 73.024L832.896 503.52C832.96 531.136 822.24 557.088 802.752 576.608zM448 96l-96 0c-17.664 0-32 14.304-32 32s14.336 32 32 32l96 0c17.664 0 32-14.304 32-32S465.664 96 448 96zM512 224l-160 0c-17.664 0-32 14.304-32 32s14.336 32 32 32l160 0c17.664 0 32-14.304 32-32S529.664 224 512 224zM320 384c0 17.664 14.336 32 32 32l96 0c17.664 0 32-14.336 32-32s-14.336-32-32-32l-96 0C334.336 352 320 366.336 320 384zM704 544 320 544c-17.664 0-32 14.336-32 32s14.336 32 32 32l384 0c17.696 0 32-14.336 32-32S721.696 544 704 544z"  horiz-adv-x="1024" />

    
    <glyph glyph-name="round_record_fill" unicode="&#59450;" d="M515.2 832c-246.4 0-448-201.6-448-448s201.6-448 448-448 448 201.6 448 448-201.6 448-448 448z m0-576c-70.4 0-128 57.6-128 128s57.6 128 128 128 128-57.6 128-128-57.6-128-128-128z"  horiz-adv-x="1024" />

    
    <glyph glyph-name="baby" unicode="&#59153;" d="M802.752 576.608c-5.312 5.312-11.168 9.824-17.344 13.824C794.24 604.928 799.616 621.792 799.616 640L799.616 672c0 52.928-43.072 96-96 96l-110.368-0.032c-10.176 1.728-38.688 26.88-58.656 51.776-6.272 7.84-15.136 11.52-25.92 12-10.016-0.288-19.36-5.28-25.184-13.44C466.88 794.848 442.464 770.336 435.104 768L320 768C267.072 768 224 724.928 224 672c0-17.664 14.336-32 32-32s32 14.336 32 32c0 17.632 14.368 32 32 32l115.104 0c27.36 0 55.296 23.552 75.84 46.24C533.44 727.712 563.904 704 592.512 704l111.136 0c17.664 0 32-14.368 32-32l0-32c0-17.632-14.336-32-32-32L320 608C318.08 608 316.416 607.232 314.592 606.912L291.36 606.912c-56.064 0-100-45.344-100.064-103.296L191.36 37.024c0-27.584 10.688-53.568 30.176-73.056 19.488-19.52 45.408-30.272 73.12-30.272l434.88 0c0.032 0 0.16 0 0.192 0 27.584 0 53.504 10.752 72.992 30.272 19.488 19.488 30.208 45.472 30.176 73.024L832.896 503.52C832.96 531.136 822.24 557.088 802.752 576.608zM768.928 36.96c0-10.496-4.064-20.384-11.456-27.776s-17.248-11.488-27.712-11.488L294.592-2.304c-10.496 0-20.32 4.096-27.744 11.488s-11.488 17.28-11.456 27.808L255.328 503.584c0 22.784 15.2 39.328 36.128 39.328l438.304-0.032c10.464 0 20.32-4.064 27.712-11.488 7.392-7.424 11.456-17.312 11.456-27.84L768.928 36.96zM352 352l96 0c17.664 0 32 14.336 32 32s-14.336 32-32 32l-96 0c-17.664 0-32-14.336-32-32S334.336 352 352 352zM512 288l-160 0c-17.664 0-32-14.304-32-32s14.336-32 32-32l160 0c17.664 0 32 14.304 32 32S529.664 288 512 288zM448 160l-96 0c-17.664 0-32-14.304-32-32s14.336-32 32-32l96 0c17.664 0 32 14.304 32 32S465.664 160 448 160z"  horiz-adv-x="1024" />

    
    <glyph glyph-name="round_ticket_fill" unicode="&#59451;" d="M588.8 444.8h-160c-9.6 0-16-6.4-16-16s6.4-16 16-16h160c9.6 0 16 6.4 16 16s-6.4 16-16 16zM512 832C265.6 832 64 630.4 64 384s201.6-448 448-448 448 201.6 448 448S758.4 832 512 832z m224-412.8c-19.2 0-38.4-16-38.4-38.4 0-19.2 16-38.4 38.4-38.4v-73.6c0-28.8-22.4-51.2-51.2-51.2H336c-28.8 0-51.2 22.4-51.2 51.2v73.6c19.2 0 38.4 16 38.4 38.4 0 19.2-16 38.4-38.4 38.4v73.6c0 28.8 22.4 51.2 51.2 51.2h348.8c28.8 0 51.2-22.4 51.2-51.2v-73.6zM588.8 348.8h-160c-9.6 0-16-6.4-16-16s6.4-16 16-16h160c9.6 0 16 6.4 16 16s-6.4 16-16 16z"  horiz-adv-x="1024" />

    
    <glyph glyph-name="brandfill" unicode="&#59154;" d="M512 832C264.96 832 64 631.04 64 384s200.96-448 448-448 448 200.96 448 448S759.04 832 512 832zM657.12 192 704 192c17.696 0 32-14.304 32-32s-14.304-32-32-32l-64 0c0 0-0.032 0-0.064 0-3.776 0.032-7.488 0.896-11.072 2.24-0.704 0.256-1.44 0.48-2.112 0.8-3.232 1.44-6.176 3.392-8.8 5.952-0.544 0.512-0.896 1.056-1.408 1.6-1.056 1.184-2.24 2.272-3.168 3.648L494.912 320 416 320l0-128 32 0c17.664 0 32-14.304 32-32s-14.336-32-32-32l-128 0c-17.664 0-32 14.304-32 32s14.336 32 32 32l32 0 0 288c0 17.664 14.336 32 32 32s32-14.336 32-32l0-96 160 0c52.928 0 96 43.072 96 96s-43.072 96-96 96l-256 0c-17.664 0-32 14.336-32 32s14.336 32 32 32l256 0c88.224 0 160-71.776 160-160s-71.776-160-160-160l-4.192 0L657.12 192z"  horiz-adv-x="1024" />

    
    <glyph glyph-name="round_redpacket" unicode="&#59452;" d="M515.2 832c-246.4 0-448-201.6-448-448s201.6-448 448-448 448 201.6 448 448-201.6 448-448 448z m0-832c-211.2 0-384 172.8-384 384s172.8 384 384 384 384-172.8 384-384-172.8-384-384-384zM656 608h-288c-28.8 0-48-22.4-48-48V512c0-6.4 6.4-12.8 12.8-16l179.2-32h6.4l172.8 32c6.4 0 12.8 9.6 12.8 16v48c0 25.6-22.4 48-48 48zM684.8 464l-172.8-32-172.8 32c-3.2 0-9.6 0-12.8-3.2-6.4-3.2-6.4-9.6-6.4-12.8v-240c0-25.6 22.4-48 48-48h288c25.6 0 48 22.4 48 48V448c0 3.2-3.2 9.6-6.4 12.8-3.2 3.2-9.6 3.2-12.8 3.2z m-128-172.8c9.6 0 16-6.4 16-16s-6.4-16-16-16h-32v-25.6c0-9.6-6.4-16-16-16s-16 6.4-16 16v25.6h-32c-9.6 0-16 6.4-16 16s6.4 16 16 16h32v22.4h-32c-9.6 0-16 6.4-16 16s6.4 16 16 16h9.6l-16 19.2c-6.4 6.4-6.4 16 0 22.4 6.4 6.4 16 6.4 22.4 0l32-35.2 32 35.2c6.4 6.4 16 6.4 22.4 0 6.4-6.4 6.4-16 0-22.4l-19.2-19.2h9.6c9.6 0 16-6.4 16-16s-6.4-16-16-16h-32v-22.4h35.2z"  horiz-adv-x="1024" />

    
    <glyph glyph-name="brand" unicode="&#59155;" d="M512 832C264.96 832 64 631.04 64 384s200.96-448 448-448 448 200.96 448 448S759.04 832 512 832zM512 0C300.256 0 128 172.256 128 384 128 595.744 300.256 768 512 768c211.744 0 384-172.256 384-384C896 172.256 723.744 0 512 0zM736 480c0 88.224-71.776 160-160 160l-256 0C302.336 640 288 625.664 288 608s14.336-32 32-32l256 0c52.928 0 96-43.072 96-96s-43.072-96-96-96l-160 0 0 96c0 17.664-14.336 32-32 32s-32-14.336-32-32l0-288-32 0c-17.664 0-32-14.304-32-32s14.336-32 32-32l128 0c17.664 0 32 14.304 32 32s-14.336 32-32 32l-32 0 0 128 78.912 0 118.464-177.76c0.896-1.376 2.08-2.464 3.168-3.648 0.512-0.544 0.864-1.088 1.408-1.6 2.624-2.528 5.6-4.512 8.8-5.952 0.672-0.352 1.408-0.576 2.112-0.8 3.552-1.344 7.296-2.208 11.072-2.24C639.968 128 640 128 640 128l64 0c17.696 0 32 14.304 32 32s-14.304 32-32 32l-46.88 0-85.312 128L576 320C664.224 320 736 391.776 736 480z"  horiz-adv-x="1024" />

    
    <glyph glyph-name="round_text_fill" unicode="&#59453;" d="M585.6 416h-185.6c-9.6 0-16-6.4-16-16s6.4-16 16-16h185.6c9.6 0 16 6.4 16 16s-6.4 16-16 16zM512 832C265.6 832 64 633.6 64 384s201.6-448 448-448 448 201.6 448 448S758.4 832 512 832z m192-640c0-19.2-12.8-32-32-32H352c-19.2 0-32 12.8-32 32V544c0 19.2 12.8 32 32 32h243.2c9.6 0 19.2-3.2 25.6-12.8l76.8-99.2c3.2-6.4 6.4-12.8 6.4-19.2V192zM585.6 320h-185.6c-9.6 0-16-6.4-16-16s6.4-16 16-16h185.6c9.6 0 16 6.4 16 16s-6.4 16-16 16z"  horiz-adv-x="1024" />

    
    <glyph glyph-name="choicenessfill" unicode="&#59156;" d="M960.192 534.848l-104.288 246.048c-5.024 11.84-16.64 19.52-29.472 19.52L232.032 800.416c-11.68 0-22.4-6.368-28.032-16.576l-133.44-242.592c-6.24-11.328-5.056-25.248 2.976-35.328l417.952-525.376c6.08-7.648 15.296-12.096 25.056-12.096l0 0c9.76 0 18.976 4.48 25.056 12.096l414.176 521.952C963.072 511.648 964.736 524.064 960.192 534.848zM800 480l-256 0 0-416c0-17.696-14.336-32-32-32s-32 14.304-32 32L480 480 224 480c-17.664 0-32 14.336-32 32s14.336 32 32 32l203.36 0L267.328 679.584C253.824 691.008 252.16 711.2 263.584 724.672c11.424 13.504 31.616 15.168 45.12 3.744l205.728-174.272 200.64 174.016c13.376 11.552 33.536 10.176 45.152-3.2 11.552-13.344 10.112-33.568-3.232-45.152L600.384 544 800 544c17.696 0 32-14.336 32-32S817.696 480 800 480z"  horiz-adv-x="1024" />

    
    <glyph glyph-name="round_ticket" unicode="&#59454;" d="M512-60.8c-246.4 0-448 201.6-448 448s201.6 448 448 448 448-201.6 448-448-201.6-448-448-448z m0 832c-211.2 0-384-172.8-384-384s172.8-384 384-384 384 172.8 384 384-172.8 384-384 384zM736 422.4v73.6c0 28.8-22.4 51.2-51.2 51.2H336c-28.8 0-51.2-22.4-51.2-51.2v-73.6c19.2 0 38.4-16 38.4-38.4s-16-35.2-35.2-35.2v-73.6c0-28.8 22.4-51.2 51.2-51.2h348.8c28.8 0 51.2 22.4 51.2 51.2v73.6c-19.2 0-38.4 16-38.4 38.4s12.8 35.2 35.2 35.2zM588.8 320h-160c-9.6 0-16 6.4-16 16s6.4 16 16 16h160c9.6 0 16-6.4 16-16s-6.4-16-16-16z m0 96h-160c-9.6 0-16 6.4-16 16s6.4 16 16 16h160c9.6 0 16-6.4 16-16s-6.4-16-16-16z"  horiz-adv-x="1024" />

    
    <glyph glyph-name="choiceness" unicode="&#59157;" d="M960.192 534.848l-104.288 246.048c-5.024 11.84-16.64 19.52-29.472 19.52L232.032 800.416c-11.68 0-22.4-6.368-28.032-16.576l-133.44-242.592c-6.24-11.328-5.056-25.248 2.976-35.328l417.952-525.376c6.08-7.648 15.296-12.096 25.056-12.096l0 0c9.76 0 18.976 4.48 25.056 12.096l414.176 521.952C963.072 511.648 964.736 524.064 960.192 534.848zM741.92 736.448l-226.336-182.592L308.256 736.448 741.92 736.448zM238.048 712.992 429.92 544 224 544c-17.664 0-32-14.336-32-32s14.336-32 32-32l256 0 0-382.24L136.896 529.088 238.048 712.992zM544 86.528 544 480l256 0c17.696 0 32 14.336 32 32s-14.304 32-32 32l-194.72 0 209.824 169.248 78.752-185.856L544 86.528z"  horiz-adv-x="1024" />

    
    <glyph glyph-name="round_transfer_fill" unicode="&#59455;" d="M512 832C265.6 832 64 630.4 64 384s201.6-448 448-448 448 201.6 448 448S758.4 832 512 832zM300.8 470.4l128 96c12.8 9.6 35.2 6.4 44.8-6.4 9.6-12.8 6.4-35.2-6.4-44.8L416 476.8h288c19.2 0 32-12.8 32-32s-12.8-32-32-32H320c-12.8 0-25.6 9.6-28.8 22.4s0 25.6 9.6 35.2z m422.4-179.2l-128-96c-6.4-3.2-12.8-6.4-19.2-6.4-9.6 0-19.2 3.2-25.6 12.8-9.6 12.8-6.4 35.2 6.4 44.8l51.2 38.4h-288c-19.2 0-32 12.8-32 32s12.8 32 32 32h384c12.8 0 25.6-9.6 32-22.4 3.2-12.8-3.2-28.8-12.8-35.2z"  horiz-adv-x="1024" />

    
    <glyph glyph-name="clothesfill" unicode="&#59158;" d="M936.672 702.784l-226.88 64c-8.704 2.528-18.112 1.12-25.824-3.776-7.68-4.864-12.896-12.736-14.432-21.728C655.712 659.072 595.328 608 512 608c-71.424 0-142.464 103.296-163.776 143.104-7.136 13.28-22.528 19.84-37.024 15.68l-224-64C73.472 698.848 64 686.272 64 672l0-256c0-9.6 4.288-18.656 11.712-24.736 7.392-6.08 17.152-8.512 26.56-6.624L224 408.96 224 64c0-52.928 43.072-96 96-96l384 0c52.928 0 96 43.072 96 96l0 312.96 121.728-24.352c9.44-1.92 19.2 0.544 26.56 6.624C955.68 365.344 960 374.4 960 384L960 672C960 686.336 950.464 698.912 936.672 702.784zM672 96 352 96c-17.664 0-32 14.304-32 32s14.336 32 32 32l320 0c17.696 0 32-14.304 32-32S689.696 96 672 96z"  horiz-adv-x="1024" />

    
    <glyph glyph-name="subtitle_block_light" unicode="&#59456;" d="M213.333333 407.466667c-12.8 0-21.333333-8.533333-21.333333-21.333334s8.533333-21.333333 21.333333-21.333333h21.333334c12.8 0 21.333333 8.533333 21.333333 21.333333s-8.533333 21.333333-21.333333 21.333334h-21.333334zM576 85.333333H149.333333c-23.466667 0-42.666667 19.2-42.666666 42.666667V640c0 23.466667 19.2 42.666667 42.666666 42.666667h704c23.466667 0 42.666667-19.2 42.666667-42.666667v-298.666667c0-12.8 8.533333-21.333333 21.333333-21.333333s21.333333 8.533333 21.333334 21.333333V640c0 46.933333-38.4 85.333333-85.333334 85.333333H149.333333c-46.933333 0-85.333333-38.4-85.333333-85.333333v-512c0-46.933333 38.4-85.333333 85.333333-85.333333h426.666667c12.8 0 21.333333 8.533333 21.333333 21.333333s-8.533333 21.333333-21.333333 21.333333zM599.466667 554.666667H405.333333c-12.8 0-21.333333-8.533333-21.333333-21.333334s8.533333-21.333333 21.333333-21.333333h194.133334c12.8 0 21.333333 8.533333 21.333333 21.333333s-8.533333 21.333333-21.333333 21.333334zM322.133333 554.666667h-21.333333c-12.8 0-21.333333-8.533333-21.333333-21.333334s8.533333-21.333333 21.333333-21.333333h21.333333c12.8 0 21.333333 8.533333 21.333334 21.333333s-10.666667 21.333333-21.333334 21.333334zM599.466667 256H405.333333c-12.8 0-21.333333-8.533333-21.333333-21.333333s8.533333-21.333333 21.333333-21.333334h194.133334c12.8 0 21.333333 8.533333 21.333333 21.333334s-8.533333 21.333333-21.333333 21.333333zM300.8 258.133333c-12.8 0-21.333333-8.533333-21.333333-21.333333s8.533333-21.333333 21.333333-21.333333h21.333333c12.8 0 21.333333 8.533333 21.333334 21.333333s-8.533333 21.333333-21.333334 21.333333h-21.333333zM535.466667 386.133333c0 12.8-8.533333 21.333333-21.333334 21.333334H320c-12.8 0-21.333333-8.533333-21.333333-21.333334s8.533333-21.333333 21.333333-21.333333h194.133333c12.8 0 21.333333 8.533333 21.333334 21.333333zM810.666667 300.8c-93.866667 0-170.666667-76.8-170.666667-170.666667s76.8-170.666667 170.666667-170.666666 170.666667 76.8 170.666666 170.666666-76.8 170.666667-170.666666 170.666667z m0-298.666667c-70.4 0-128 57.6-128 128 0 27.733333 8.533333 53.333333 23.466666 72.533334l177.066667-177.066667c-19.2-14.933333-44.8-23.466667-72.533333-23.466667z m104.533333 51.2c0 2.133333-2.133333 2.133333 0 0l-179.2 179.2c21.333333 14.933333 46.933333 25.6 74.666667 25.6 70.4 0 128-57.6 128-128 0-29.866667-8.533333-55.466667-23.466667-76.8z"  horiz-adv-x="1024" />

    
    <glyph glyph-name="clothes" unicode="&#59159;" d="M936.672 702.784l-226.88 64c-8.704 2.528-18.112 1.12-25.824-3.776-7.68-4.864-12.896-12.736-14.432-21.728C656.576 664.064 590.272 608 512 608c-30.56 0-56.16 13.12-79.296 27.296-15.04 9.216-34.752 4.512-44-10.56s-4.512-34.752 10.56-44C428.896 562.56 465.44 544 512 544c97.664 0 181.952 62.272 212.096 152.288L896 647.776l0-224.736-121.728 24.352c-9.408 1.888-19.168-0.576-26.56-6.624C740.32 434.656 736 425.6 736 416l0-352c0-17.664-14.336-32-32-32L320 32c-17.632 0-32 14.336-32 32L288 448c0 9.6-4.288 18.656-11.712 24.736-7.424 6.08-17.152 8.576-26.56 6.624L128 455.04 128 647.872l200.8 57.376c16.992 4.864 26.816 22.56 21.984 39.552-4.832 16.96-22.56 26.816-39.552 21.984l-224-64C73.472 698.848 64 686.272 64 672l0-256c0-9.6 4.288-18.656 11.712-24.736 7.392-6.08 17.152-8.512 26.56-6.624L224 408.96 224 64c0-52.928 43.072-96 96-96l384 0c52.928 0 96 43.072 96 96l0 312.96 121.728-24.352c9.44-1.92 19.2 0.544 26.56 6.624C955.68 365.344 960 374.4 960 384L960 672C960 686.336 950.464 698.912 936.672 702.784zM320 128c0-17.696 14.336-32 32-32l320 0c17.696 0 32 14.304 32 32s-14.304 32-32 32L352 160C334.336 160 320 145.696 320 128z"  horiz-adv-x="1024" />

    
    <glyph glyph-name="warn_light" unicode="&#59457;" d="M947.2 85.333333L571.733333 768C554.666667 795.733333 533.333333 810.666667 509.866667 810.666667c-23.466667 0-44.8-14.933333-59.733334-42.666667L74.666667 85.333333c-14.933333-25.6-14.933333-53.333333-4.266667-74.666666 12.8-21.333333 36.266667-32 66.133333-32h746.666667c29.866667 0 53.333333 12.8 66.133333 32 12.8 21.333333 12.8 49.066667-2.133333 74.666666z m-34.133333-51.2c-4.266667-6.4-14.933333-10.666667-29.866667-10.666666h-746.666667c-14.933333 0-25.6 4.266667-29.866666 10.666666-4.266667 6.4-2.133333 19.2 4.266666 32l375.466667 682.666667c8.533333 12.8 17.066667 19.2 23.466667 19.2 6.4 0 14.933333-6.4 23.466666-19.2l375.466667-682.666667c8.533333-12.8 8.533333-25.6 4.266667-32zM512 256c12.8 0 21.333333 8.533333 21.333333 21.333333V573.866667c0 12.8-8.533333 21.333333-21.333333 21.333333s-21.333333-8.533333-21.333333-21.333333V277.333333c0-10.666667 10.666667-21.333333 21.333333-21.333333zM509.866667 151.466667m-42.666667 0a42.666667 42.666667 0 1 1 85.333333 0 42.666667 42.666667 0 1 1-85.333333 0Z"  horiz-adv-x="1024" />

    
    <glyph glyph-name="creativefill" unicode="&#59160;" d="M863.68 639.68c-8.736 0-17.44 3.552-23.744 10.56-11.84 13.12-10.816 33.344 2.304 45.216l32.512 29.312c13.088 11.84 33.312 10.816 45.184-2.336 11.84-13.12 10.816-33.344-2.304-45.216L885.12 647.936C879.008 642.4 871.328 639.68 863.68 639.68zM160.352 639.68c-7.648 0-15.296 2.72-21.408 8.224L106.432 677.248c-13.12 11.84-14.144 32.064-2.336 45.216s32.032 14.176 45.216 2.336l32.512-29.312c13.12-11.84 14.144-32.064 2.336-45.216C177.824 643.264 169.12 639.68 160.352 639.68zM512 768c-17.664 0-32 14.336-32 32L480 832c0 17.664 14.336 32 32 32s32-14.336 32-32l0-32C544 782.336 529.664 768 512 768zM512 746.304c-176.448 0-320-143.552-320-320 0-111.04 68.64-187.136 71.52-190.304C293.6 203.2 320 135.36 320 90.88l0-55.68c0-70.592 57.408-128 128-128l128 0c70.592 0 128 57.408 128 128l0 55.68c0 44.544 26.368 112.352 56.48 145.12 2.912 3.2 71.52 79.296 71.52 190.304C832 602.752 688.448 746.304 512 746.304zM576 32l-128 0c-17.664 0-32 14.304-32 32s14.336 32 32 32l128 0c17.696 0 32-14.304 32-32S593.696 32 576 32zM650.112 321.664C646.752 320.544 643.328 320 640 320c-13.408 0-25.888 8.48-30.336 21.888l-15.648 46.88-59.36-59.392c-12.512-12.512-32.736-12.512-45.248 0l-59.392 59.392-15.616-46.88c-5.6-16.736-23.68-25.888-40.48-20.224-16.768 5.568-25.824 23.68-20.224 40.48l32 96c3.52 10.528 12.224 18.464 23.008 21.024 10.752 2.56 22.144-0.672 29.984-8.512L512 397.248l73.376 73.376c7.808 7.84 19.168 11.04 29.984 8.512 10.816-2.56 19.488-10.496 23.008-21.024l32-96C675.936 345.344 666.88 327.232 650.112 321.664z"  horiz-adv-x="1024" />

    
    <glyph glyph-name="round_transfer" unicode="&#59458;" d="M512 835.2c-246.4 0-448-201.6-448-448s201.6-448 448-448 448 201.6 448 448-201.6 448-448 448z m0-832c-211.2 0-384 172.8-384 384s172.8 384 384 384 384-172.8 384-384c0-214.4-172.8-384-384-384zM320 416h384c19.2 0 32 12.8 32 32s-12.8 32-32 32h-284.8l51.2 38.4c12.8 9.6 16 32 6.4 44.8-9.6 12.8-32 16-44.8 6.4l-128-96c-9.6-9.6-16-22.4-12.8-35.2s16-22.4 28.8-22.4zM704 352H320c-19.2 0-32-12.8-32-32s12.8-32 32-32h284.8l-51.2-38.4c-12.8-9.6-16-32-6.4-44.8 6.4-9.6 16-12.8 25.6-12.8 6.4 0 12.8 3.2 19.2 6.4l128 96c9.6 9.6 16 22.4 12.8 35.2-3.2 12.8-16 22.4-28.8 22.4z"  horiz-adv-x="1024" />

    
    <glyph glyph-name="creative" unicode="&#59161;" d="M576-92.8l-128 0c-70.592 0-128 57.408-128 128l0 55.68c0 44.512-26.4 112.32-56.48 145.12C260.64 239.2 192 315.296 192 426.304c0 176.448 143.552 320 320 320 176.448 0 320-143.552 320-320 0-111.04-68.64-187.136-71.52-190.304C730.368 203.232 704 135.392 704 90.88l0-55.68C704-35.392 646.592-92.8 576-92.8zM512 682.304c-141.152 0-256-114.848-256-256 0-86.4 54.144-146.464 54.72-147.072 41.088-44.8 73.28-127.552 73.28-188.384l0-55.68c0-35.296 28.704-64 64-64l128 0c35.296 0 64 28.704 64 64l0 55.68c0 60.832 32.192 143.552 73.28 188.384 0.48 0.544 54.72 61.6 54.72 147.072C768 567.456 653.152 682.304 512 682.304zM640 320c-13.408 0-25.888 8.48-30.336 21.888l-15.648 46.88-59.36-59.392c-12.512-12.512-32.736-12.512-45.248 0l-59.392 59.392-15.616-46.88c-5.6-16.736-23.68-25.888-40.48-20.224-16.768 5.568-25.824 23.68-20.224 40.48l32 96c3.52 10.528 12.224 18.464 23.008 21.024 10.752 2.56 22.144-0.672 29.984-8.512L512 397.248l73.376 73.376c7.808 7.84 19.168 11.04 29.984 8.512 10.816-2.56 19.488-10.496 23.008-21.024l32-96c5.6-16.768-3.456-34.912-20.224-40.48C646.752 320.544 643.328 320 640 320zM863.68 639.68c-8.736 0-17.44 3.552-23.744 10.56-11.84 13.12-10.816 33.344 2.304 45.216l32.512 29.312c13.088 11.84 33.312 10.816 45.184-2.336 11.84-13.12 10.816-33.344-2.304-45.216L885.12 647.936C879.008 642.4 871.328 639.68 863.68 639.68zM160.352 639.68c-7.648 0-15.296 2.72-21.408 8.224L106.432 677.248c-13.12 11.84-14.144 32.064-2.336 45.216s32.032 14.176 45.216 2.336l32.512-29.312c13.12-11.84 14.144-32.064 2.336-45.216C177.824 643.264 169.12 639.68 160.352 639.68zM512 768c-17.664 0-32 14.336-32 32L480 832c0 17.664 14.336 32 32 32s32-14.336 32-32l0-32C544 782.336 529.664 768 512 768zM576 32l-128 0c-17.664 0-32 14.304-32 32s14.336 32 32 32l128 0c17.696 0 32-14.304 32-32S593.696 32 576 32z"  horiz-adv-x="1024" />

    
    <glyph glyph-name="vip_code_light" unicode="&#59459;" d="M896 384c12.8 0 21.333333 8.533333 21.333333 21.333333 0 189.866667-132.266667 320-345.6 343.466667-10.666667 38.4-32 70.4-64 89.6-25.6 14.933333-53.333333 19.2-76.8 8.533333-2.133333 0-2.133333 0-4.266666-2.133333-21.333333-12.8-21.333333-44.8-19.2-72.533333V746.666667C215.466667 708.266667 106.666667 584.533333 106.666667 405.333333c0-12.8 8.533333-21.333333 21.333333-21.333333s21.333333 8.533333 21.333333 21.333333C149.333333 625.066667 324.266667 689.066667 428.8 708.266667c6.4 2.133333 12.8 6.4 17.066667 12.8 6.4 14.933333 4.266667 34.133333 4.266666 53.333333 0 10.666667-2.133333 29.866667 0 34.133333 10.666667 2.133333 23.466667 0 36.266667-8.533333C512 787.2 526.933333 759.466667 533.333333 725.333333c2.133333-10.666667 8.533333-17.066667 19.2-19.2 200.533333-14.933333 322.133333-128 322.133334-300.8 0-12.8 8.533333-21.333333 21.333333-21.333333zM614.4 320c-12.8 0-21.333333-8.533333-21.333333-21.333333v-341.333334c0-12.8 8.533333-21.333333 21.333333-21.333333s21.333333 8.533333 21.333333 21.333333V298.666667c0 10.666667-8.533333 21.333333-21.333333 21.333333zM763.733333 189.866667c-12.8 0-21.333333-8.533333-21.333333-21.333334V-42.666667c0-12.8 8.533333-21.333333 21.333333-21.333333s21.333333 8.533333 21.333334 21.333333v211.2c0 12.8-8.533333 21.333333-21.333334 21.333334zM893.866667 66.133333c12.8 0 21.333333 8.533333 21.333333 21.333334V298.666667c0 12.8-8.533333 21.333333-21.333333 21.333333s-21.333333-8.533333-21.333334-21.333333v-211.2c0-10.666667 10.666667-21.333333 21.333334-21.333334zM763.733333 320c-12.8 0-21.333333-8.533333-21.333333-21.333333v-42.666667c0-12.8 8.533333-21.333333 21.333333-21.333333s21.333333 8.533333 21.333334 21.333333v42.666667c0 10.666667-8.533333 21.333333-21.333334 21.333333zM896 19.2c-12.8 0-21.333333-8.533333-21.333333-21.333333V-42.666667c0-12.8 8.533333-21.333333 21.333333-21.333333s21.333333 8.533333 21.333333 21.333333v40.533334c0 12.8-8.533333 21.333333-21.333333 21.333333zM424.533333 460.8v40.533333c0 17.066667-14.933333 32-32 32s-32-14.933333-32-32v-40.533333c0-17.066667 14.933333-32 32-32s32 12.8 32 32zM650.666667 531.2c-17.066667 0-32-14.933333-32-32v-40.533333c0-17.066667 14.933333-32 32-32s32 14.933333 32 32v40.533333c0 19.2-14.933333 32-32 32zM416 320h-234.666667C140.8 320 106.666667 288 106.666667 245.333333v-234.666666C106.666667-29.866667 140.8-64 181.333333-64h234.666667c40.533333 0 74.666667 34.133333 74.666667 74.666667v234.666666c0 42.666667-32 74.666667-74.666667 74.666667zM448 10.666667c0-17.066667-14.933333-32-32-32h-234.666667c-17.066667 0-32 14.933333-32 32v234.666666c0 17.066667 14.933333 32 32 32h234.666667c17.066667 0 32-14.933333 32-32v-234.666666z"  horiz-adv-x="1024" />

    
    <glyph glyph-name="female" unicode="&#59162;" d="M864 480c0 194.08-157.92 352-352 352S160 674.08 160 480c0-183.392 141.024-334.304 320.32-350.4C480.288 129.024 480 128.576 480 128l0-64-128 0c-17.664 0-32-14.304-32-32s14.336-32 32-32l128 0 0-32c0-17.696 14.336-32 32-32s32 14.304 32 32l0 32 128 0c17.696 0 32 14.304 32 32s-14.304 32-32 32l-128 0 0 64c0 0.576-0.288 1.024-0.32 1.6C722.976 145.696 864 296.608 864 480zM512 192c-158.784 0-288 129.184-288 288 0 158.784 129.216 288 288 288 158.816 0 288-129.216 288-288C800 321.184 670.816 192 512 192z"  horiz-adv-x="1024" />

    
    <glyph glyph-name="subtitle_unblock_light" unicode="&#59460;" d="M576 85.33333300000004H149.333333c-23.466667 0-42.666667 19.2-42.666666 42.666667V640c0 23.466667 19.2 42.666667 42.666666 42.666667h704c23.466667 0 42.666667-19.2 42.666667-42.666667v-298.666667c0-12.8 8.533333-21.333333 21.333333-21.333333s21.333333 8.533333 21.333334 21.333333V640c0 46.933333-38.4 85.333333-85.333334 85.333333H149.333333c-46.933333 0-85.333333-38.4-85.333333-85.333333v-512c0-46.933333 38.4-85.333333 85.333333-85.333333h426.666667c12.8 0 21.333333 8.533333 21.333333 21.333333s-8.533333 21.333333-21.333333 21.333333zM599.466667 554.666667H405.333333c-12.8 0-21.333333-8.533333-21.333333-21.333334s8.533333-21.333333 21.333333-21.333333h194.133334c12.8 0 21.333333 8.533333 21.333333 21.333333s-8.533333 21.333333-21.333333 21.333334zM322.133333 554.666667h-21.333333c-12.8 0-21.333333-8.533333-21.333333-21.333334s8.533333-21.333333 21.333333-21.333333h21.333333c12.8 0 21.333333 8.533333 21.333334 21.333333s-8.533333 21.333333-21.333334 21.333334zM599.466667 256H405.333333c-12.8 0-21.333333-8.533333-21.333333-21.333333s8.533333-21.333333 21.333333-21.333334h194.133334c12.8 0 21.333333 8.533333 21.333333 21.333334s-8.533333 21.333333-21.333333 21.333333zM300.8 258.133333c-12.8 0-21.333333-8.533333-21.333333-21.333333s8.533333-21.333333 21.333333-21.333333h21.333333c12.8 0 21.333333 8.533333 21.333334 21.333333s-8.533333 21.333333-21.333334 21.333333h-21.333333zM535.466667 386.133333c0 12.8-8.533333 21.333333-21.333334 21.333334H320c-12.8 0-21.333333-8.533333-21.333333-21.333334s8.533333-21.333333 21.333333-21.333333h194.133333c12.8 0 21.333333 8.533333 21.333334 21.333333zM211.2 407.466667c-12.8 0-21.333333-8.533333-21.333333-21.333334s8.533333-21.333333 21.333333-21.333333h21.333333c12.8 0 21.333333 8.533333 21.333334 21.333333s-8.533333 21.333333-21.333334 21.333334h-21.333333zM810.666667 300.79999999999995c-93.866667 0-170.666667-76.8-170.666667-170.666667s76.8-170.666667 170.666667-170.666666 170.666667 76.8 170.666666 170.666666-74.666667 170.666667-170.666666 170.666667z m0-298.666667c-70.4 0-128 57.6-128 128s57.6 128 128 128 128-57.6 128-128-55.466667-128-128-128zM859.733333 185.60000000000002L789.333333 115.20000000000005l-25.6 27.733333c-8.533333 8.533333-21.333333 8.533333-29.866666 0-8.533333-8.533333-8.533333-21.333333 0-29.866666l40.533333-42.666667c2.133333-2.133333 2.133333-2.133333 4.266667-2.133333l2.133333-2.133334c2.133333-2.133333 4.266667-2.133333 8.533333-2.133333 2.133333 0 6.4 0 8.533334 2.133333l2.133333 2.133334c2.133333 0 2.133333 2.133333 4.266667 2.133333l87.466666 87.466667c8.533333 8.533333 8.533333 21.333333 0 29.866666-8.533333 6.4-23.466667 6.4-32-2.133333z"  horiz-adv-x="1024" />

    
    <glyph glyph-name="keyboard" unicode="&#59163;" d="M736 544c-17.696 0-32-14.336-32-32l0-96-96 0c-17.696 0-32-14.336-32-32s14.304-32 32-32l128 0c17.696 0 32 14.336 32 32l0 128C768 529.664 753.696 544 736 544zM736 224 288 224c-17.664 0-32 14.304-32 32s14.336 32 32 32l448 0c17.696 0 32-14.304 32-32S753.696 224 736 224zM480 352l-32 0c-17.664 0-32 14.336-32 32s14.336 32 32 32l32 0c17.664 0 32-14.336 32-32S497.664 352 480 352zM320 352 288 352c-17.664 0-32 14.336-32 32s14.336 32 32 32l32 0c17.664 0 32-14.336 32-32S337.664 352 320 352zM480 480l-32 0c-17.664 0-32 14.336-32 32s14.336 32 32 32l32 0c17.664 0 32-14.336 32-32S497.664 480 480 480zM640 480l-32 0c-17.696 0-32 14.336-32 32s14.304 32 32 32l32 0c17.696 0 32-14.336 32-32S657.696 480 640 480zM320 480 288 480c-17.664 0-32 14.336-32 32s14.336 32 32 32l32 0c17.664 0 32-14.336 32-32S337.664 480 320 480zM512.128-61.344c-247.04 0-448 200.96-448 448s200.96 448 448 448 448-200.96 448-448S759.168-61.344 512.128-61.344zM512.128 770.656c-211.744 0-384-172.256-384-384 0-211.744 172.256-384 384-384 211.744 0 384 172.256 384 384C896.128 598.4 723.872 770.656 512.128 770.656z"  horiz-adv-x="1024" />

    
    <glyph glyph-name="round_shop_fill" unicode="&#59461;" d="M512 828.8C265.6 828.8 67.2 630.4 67.2 384S268.8-60.8 512-60.8c246.4 0 444.8 201.6 444.8 444.8 0 246.4-198.4 444.8-444.8 444.8z m140.8-646.4h-304c-22.4 0-41.6 19.2-41.6 41.6v89.6c0 3.2 0 6.4 3.2 6.4 6.4-3.2 9.6-9.6 16-12.8 12.8-6.4 25.6-9.6 41.6-9.6 25.6 0 51.2 9.6 67.2 28.8h3.2c16-19.2 41.6-32 67.2-32s51.2 12.8 67.2 32c16-19.2 41.6-32 67.2-32 16 0 32 3.2 41.6 9.6 3.2 3.2 9.6 6.4 12.8 9.6v-92.8c0-19.2-19.2-38.4-41.6-38.4z m28.8 169.6c-12.8-6.4-25.6-9.6-41.6-9.6-25.6 0-51.2 12.8-67.2 32-16-19.2-41.6-32-67.2-32s-51.2 12.8-67.2 32c-16-19.2-41.6-28.8-67.2-28.8-16 0-28.8 3.2-41.6 9.6-28.8 16-48 44.8-48 76.8 0 9.6 0 19.2 3.2 28.8v3.2l41.6 96c6.4 19.2 25.6 32 44.8 32h265.6c22.4 0 41.6-12.8 48-32l38.4-96v-3.2c3.2-9.6 3.2-19.2 3.2-28.8 0-35.2-16-64-44.8-80z"  horiz-adv-x="1024" />

    
    <glyph glyph-name="male" unicode="&#59164;" d="M926.56 775.2c-0.224 1.344-0.32 2.72-0.8 4.032 0 0 0 0-0.032 0.032-0.8 2.176-2.112 3.968-3.36 5.888-0.032 0.064-0.064 0.096-0.096 0.16-0.832 1.28-1.216 2.688-2.24 3.872-0.224 0.256-0.544 0.352-0.768 0.608-1.6 1.728-3.584 2.88-5.568 4.224 0 0.032-0.032 0.032-0.064 0.064-1.504 1.024-2.848 2.272-4.48 3.008 0 0 0 0-0.032 0C905.088 798.88 900.672 800 896 800l-224 0c-17.696 0-32-14.336-32-32s14.304-32 32-32l139.328 0-152.704-134.656C599.808 645.504 527.04 672 448 672 253.92 672 96 514.08 96 320s157.92-352 352-352 352 157.92 352 352c0 91.904-35.68 175.424-93.6 238.176L864 697.12 864 576c0-17.664 14.304-32 32-32s32 14.336 32 32L928 768C928 770.56 927.136 772.8 926.56 775.2zM736 320c0-158.816-129.184-288-288-288-158.784 0-288 129.184-288 288 0 158.784 129.216 288 288 288C606.816 608 736 478.784 736 320z"  horiz-adv-x="1024" />

    
    <glyph glyph-name="oppose_fill_light" unicode="&#59462;" d="M725.333333 789.333333H256c-12.8 0-21.333333-8.533333-21.333333-21.333333v-448c0-12.8 8.533333-21.333333 21.333333-21.333333h70.4c10.666667-4.266667 89.6-27.733333 123.733333-87.466667 10.666667-19.2 21.333333-55.466667 29.866667-91.733333 12.8-51.2 23.466667-98.133333 46.933333-123.733334 12.8-12.8 32-19.2 53.333334-19.2 12.8 0 23.466667 2.133333 36.266666 6.4 46.933333 17.066667 78.933333 59.733333 87.466667 115.2 10.666667 81.066667-10.666667 157.866667-23.466667 200.533334h183.466667c36.266667 0 78.933333 38.4 78.933333 85.333333-4.266667 6.4-12.8 405.333333-217.6 405.333333zM170.666667 789.333333H106.666667c-12.8 0-21.333333-8.533333-21.333334-21.333333v-448c0-12.8 8.533333-21.333333 21.333334-21.333333h64c12.8 0 21.333333 8.533333 21.333333 21.333333V768c0 12.8-10.666667 21.333333-21.333333 21.333333z"  horiz-adv-x="1024" />

    
    <glyph glyph-name="newfill" unicode="&#59165;" d="M387.2 113.76M286.112 154.88M512 832.32c-247.04 0-448-172.256-448-384 0-116.48 63.008-226.048 170.592-298.944l87.328-71.52c-3.904-19.328-17.408-60.096-32.64-97.536-4.928-12.096-1.984-25.984 7.36-35.072 6.112-5.888 14.112-8.992 22.272-8.992 4.384 0 8.8 0.896 12.992 2.752 36.416 16.224 147.488 68.96 187.616 125.376C763.136 67.84 960 238.752 960 448.32 960 660.032 759.04 832.32 512 832.32zM731.136 489.44l-128.8-188.864c-5.984-8.736-15.872-13.984-26.432-13.984-0.128 0-0.288 0-0.448 0-10.72 0.16-20.672 5.664-26.464 14.688l-91.584 142.208L385.824 304c-5.664-11.072-16.864-17.408-28.512-17.408-4.896 0-9.92 1.12-14.592 3.52-15.712 8.064-21.92 27.328-13.856 43.072l96.896 188.896c5.216 10.176 15.456 16.8 26.912 17.344 11.52 0.416 22.272-5.024 28.48-14.656l95.456-148.288 101.632 148.992c9.984 14.592 29.856 18.336 44.48 8.416C737.312 523.968 741.088 504.032 731.136 489.44z"  horiz-adv-x="1024" />

    
    <glyph glyph-name="oppose_light" unicode="&#59463;" d="M725.333333 789.333333H256c-12.8 0-21.333333-8.533333-21.333333-21.333333v-448c0-12.8 8.533333-21.333333 21.333333-21.333333H326.4c6.4-2.133333 87.466667-25.6 123.733333-87.466667 10.666667-19.2 21.333333-55.466667 29.866667-91.733333 12.8-51.2 23.466667-98.133333 46.933333-123.733334 12.8-12.8 32-19.2 53.333334-19.2 12.8 0 23.466667 2.133333 36.266666 6.4 46.933333 17.066667 78.933333 59.733333 87.466667 115.2 10.666667 81.066667-10.666667 157.866667-23.466667 200.533334h183.466667c36.266667 0 78.933333 38.4 78.933333 85.333333-4.266667 6.4-12.8 405.333333-217.6 405.333333z m134.4-445.866666h-213.333333c-6.4 0-14.933333-4.266667-17.066667-10.666667-4.266667-6.4-4.266667-12.8-2.133333-21.333333 0 0 44.8-100.266667 32-206.933334-6.4-55.466667-42.666667-74.666667-57.6-78.933333-21.333333-6.4-40.533333-2.133333-44.8 2.133333-14.933333 14.933333-27.733333 61.866667-36.266667 104.533334-10.666667 40.533333-19.2 76.8-34.133333 102.4-44.8 76.8-145.066667 104.533333-149.333333 106.666666H277.333333V746.666667h46.933334v-2.133334C324.266667 746.666667 640 746.666667 725.333333 746.666667c138.666667 0 170.666667-290.133333 170.666667-360.533334 0-25.6-23.466667-42.666667-36.266667-42.666666zM170.666667 746.666667c12.8 0 21.333333 8.533333 21.333333 21.333333s-10.666667 21.333333-21.333333 21.333333H106.666667c-12.8 0-21.333333-8.533333-21.333334-21.333333v-448c0-12.8 8.533333-21.333333 21.333334-21.333333h64c12.8 0 21.333333 8.533333 21.333333 21.333333s-8.533333 21.333333-21.333333 21.333333H128V746.666667h42.666667z"  horiz-adv-x="1024" />

    
    <glyph glyph-name="new" unicode="&#59166;" d="M963.072 449.664c0 211.744-200.96 384-448 384s-448-172.256-448-384c0-116.48 63.008-226.048 172.896-300.672 14.656-9.984 34.528-6.144 44.448 8.512 9.952 14.624 6.112 34.528-8.512 44.448-92.032 62.496-144.832 152.768-144.832 247.712 0 176.448 172.256 320 384 320 211.744 0 384-143.552 384-320 0-176.448-172.256-320-384-320-1.984 0-3.68-0.768-5.568-1.12-15.104 2.688-30.464-5.216-35.776-20.192-6.144-17.376-46.368-46.656-94.144-73.792 17.472 58.208 9.088 70.688 3.52 78.976-6.72 9.984-17.92 15.936-29.92 15.936-17.664 0-32-14.304-32-32 0-5.824 1.536-11.264 4.256-15.936-3.232-18.24-17.216-60.864-33.088-99.872-4.928-12.096-1.984-25.984 7.36-35.072 6.112-5.888 14.112-8.992 22.272-8.992 4.384 0 8.8 0.896 12.992 2.752 36.48 16.256 147.68 69.12 187.616 125.664C766.144 69.504 963.072 240.096 963.072 449.664zM342.624 291.456c4.672-2.4 9.664-3.52 14.592-3.52 11.616 0 22.816 6.336 28.512 17.408l71.584 139.488 91.584-142.208c5.824-9.024 15.744-14.528 26.464-14.688 0.16 0 0.32 0 0.448 0 10.56 0 20.48 5.216 26.432 13.984l128.8 188.864c9.984 14.624 6.176 34.528-8.416 44.48-14.624 9.952-34.528 6.208-44.48-8.416l-101.632-148.992-95.456 148.288c-6.176 9.6-17.152 14.752-28.48 14.656-11.424-0.576-21.696-7.2-26.912-17.344l-96.896-188.896C320.672 318.816 326.88 299.52 342.624 291.456z"  horiz-adv-x="1024" />

    
    <glyph glyph-name="living" unicode="&#59464;" d="M514.133333 407.466667m-106.666666 0a106.666667 106.666667 0 1 1 213.333333 0 106.666667 106.666667 0 1 1-213.333333 0ZM512 832C264.533333 832 64 631.466667 64 384c0-236.8 183.466667-428.8 416-445.866667v134.4c-53.333333 59.733333-200.533333 230.4-200.533333 334.933334 0 130.133333 104.533333 234.666667 234.666666 234.666666s234.666667-104.533333 234.666667-234.666666c0-61.866667-49.066667-153.6-145.066667-270.933334l-59.733333-68.266666V-64C776.533333-46.933333 960 147.2 960 384c0 247.466667-200.533333 448-448 448z"  horiz-adv-x="1024" />

    
    <glyph glyph-name="pullleft" unicode="&#59167;" d="M512-64C264.96-64 64 136.96 64 384S264.96 832 512 832s448-200.96 448-448S759.04-64 512-64zM512 768C300.256 768 128 595.744 128 384c0-211.744 172.256-384 384-384 211.744 0 384 172.256 384 384C896 595.744 723.744 768 512 768zM290.368 371.648c0.032-0.128 0.192-0.256 0.256-0.384 1.536-3.616 3.648-7.072 6.592-10.048 0.032-0.032 0.064-0.032 0.096-0.064s0.032-0.064 0.064-0.096l158.912-159.36c12.48-12.512 32.704-12.576 45.248-0.064 12.512 12.48 12.544 32.704 0.064 45.248l-103.328 103.616 305.056 0c17.664 0 32 14.336 32 32s-14.336 32-32 32l-306.752 0 106.112 104.96c12.576 12.448 12.672 32.672 0.256 45.248-6.24 6.336-14.496 9.504-22.752 9.504-8.128 0-16.256-3.104-22.496-9.248l-160.256-158.496C288 397.088 285.632 383.296 290.368 371.648z"  horiz-adv-x="1024" />

    
    <glyph glyph-name="goods_hot_fill" unicode="&#59465;" d="M902.4 579.2c0 16-16 32-32 32h-108.8c-6.4 124.8-115.2 224-246.4 224h-19.2c-131.2 0-240-99.2-246.4-224H147.2c-16 0-32-12.8-32-32L96 51.2v-3.2c3.2-64 54.4-112 115.2-112h595.2c60.8 0 112 48 118.4 108.8v3.2l-22.4 531.2zM316.8 448c0-19.2-12.8-32-32-32s-32 12.8-32 32v64c0 19.2 12.8 32 32 32s32-12.8 32-32v-64z m246.4-441.6c28.8 64-6.4 144-64 182.4-3.2-70.4-25.6-86.4-64-137.6-12.8-25.6-9.6-41.6 0-54.4-9.6 3.2-12.8 6.4-12.8 6.4-86.4 48-108.8 92.8-96 153.6 9.6 44.8 44.8 83.2 48 128 12.8-22.4 16-41.6 16-67.2 41.6 51.2 86.4 121.6 76.8 182.4 0 0 80-25.6 112-147.2 19.2 16 16 51.2 6.4 73.6 32-16 198.4-198.4-22.4-320zM316.8 608c6.4 89.6 86.4 160 182.4 160h19.2c96 0 176-70.4 182.4-160h-384z m448-160c0-19.2-12.8-32-32-32s-32 12.8-32 32v64c0 19.2 12.8 32 32 32s32-12.8 32-32v-64z"  horiz-adv-x="1024" />

    
    <glyph glyph-name="pullright" unicode="&#59168;" d="M512-64C264.96-64 64 136.96 64 384S264.96 832 512 832s448-200.96 448-448S759.04-64 512-64zM512 768C300.256 768 128 595.744 128 384c0-211.744 172.256-384 384-384 211.744 0 384 172.256 384 384C896 595.744 723.744 768 512 768zM732.96 394.848c-0.032 0.128-0.192 0.256-0.256 0.384-1.536 3.616-3.648 7.072-6.592 10.048-0.032 0.032-0.064 0.032-0.096 0.064s-0.032 0.064-0.064 0.096l-158.912 159.36c-12.48 12.48-32.704 12.576-45.248 0.064-12.512-12.48-12.544-32.736-0.064-45.248L625.056 416 320 416c-17.664 0-32-14.336-32-32s14.336-32 32-32l306.752 0-106.112-104.96c-12.576-12.448-12.672-32.672-0.256-45.248 6.24-6.336 14.496-9.504 22.752-9.504 8.128 0 16.256 3.104 22.496 9.248l160.256 158.496C735.328 369.408 737.728 383.232 732.96 394.848z"  horiz-adv-x="1024" />

    
    <glyph glyph-name="ticket_money_fill" unicode="&#59466;" d="M800 832h-137.6c-12.8 0-25.6-6.4-28.8-19.2-19.2-48-67.2-80-118.4-80s-99.2 32-118.4 80c-9.6 12.8-22.4 19.2-35.2 19.2H224C169.6 832 128 790.4 128 736v-704c0-54.4 41.6-96 96-96h144c12.8 0 22.4 6.4 28.8 19.2 22.4 44.8 67.2 73.6 115.2 73.6s92.8-28.8 115.2-73.6c6.4-9.6 16-19.2 28.8-19.2H800c54.4 0 96 41.6 96 96V736c0 54.4-44.8 96-96 96z m-156.8-512c19.2 0 32-12.8 32-32s-12.8-32-32-32h-96v-60.8c0-19.2-12.8-32-32-32s-32 12.8-32 32V256h-96c-19.2 0-32 12.8-32 32s12.8 32 32 32h96v64h-96c-19.2 0-32 12.8-32 32s12.8 32 32 32h76.8l-67.2 73.6c-12.8 12.8-9.6 32 3.2 44.8 12.8 12.8 32 9.6 44.8-3.2l67.2-73.6s0-3.2 3.2-3.2c0 0 0 3.2 3.2 3.2l70.4 73.6c12.8 12.8 32 12.8 44.8 0 12.8-12.8 12.8-32 0-44.8L563.2 448h80c19.2 0 32-12.8 32-32s-12.8-32-32-32h-96v-64h96z"  horiz-adv-x="1024" />

    
    <glyph glyph-name="rankfill" unicode="&#59169;" d="M288 608 160 608c-17.664 0-32-14.336-32-32l0-544c0-17.696 14.336-32 32-32l128 0c17.664 0 32 14.304 32 32L320 576C320 593.664 305.664 608 288 608zM576 416l-128 0c-17.664 0-32-14.336-32-32l0-352c0-17.696 14.336-32 32-32l128 0c17.696 0 32 14.304 32 32L608 384C608 401.664 593.696 416 576 416zM864 768l-128 0c-17.696 0-32-14.336-32-32l0-704c0-17.696 14.304-32 32-32l128 0c17.696 0 32 14.304 32 32L896 736C896 753.664 881.696 768 864 768z"  horiz-adv-x="1024" />

    
    <glyph glyph-name="arrow_left_fill" unicode="&#59467;" d="M640 544h-224V700.8c0 12.8-9.6 25.6-22.4 28.8-12.8 3.2-25.6 0-35.2-9.6l-256-316.8c-9.6-12.8-9.6-28.8 0-41.6l256-320c6.4-6.4 16-12.8 25.6-12.8 3.2 0 6.4 0 9.6 3.2 12.8 3.2 22.4 16 22.4 28.8v160h224c19.2 0 32 12.8 32 32v256c0 22.4-12.8 35.2-32 35.2zM896 544c-19.2 0-32-12.8-32-32v-256c0-19.2 12.8-32 32-32s32 12.8 32 32v256c0 19.2-12.8 32-32 32zM768 544c-19.2 0-32-12.8-32-32v-256c0-19.2 12.8-32 32-32s32 12.8 32 32v256c0 19.2-12.8 32-32 32z"  horiz-adv-x="1024" />

    
    <glyph glyph-name="rank" unicode="&#59170;" d="M288 0 160 0c-17.664 0-32 14.304-32 32L128 576c0 17.664 14.336 32 32 32l128 0c17.664 0 32-14.336 32-32l0-544C320 14.304 305.664 0 288 0zM192 64l64 0L256 544 192 544 192 64zM576 0l-128 0c-17.664 0-32 14.304-32 32L416 384c0 17.664 14.336 32 32 32l128 0c17.696 0 32-14.336 32-32l0-352C608 14.304 593.696 0 576 0zM480 64l64 0 0 288-64 0L480 64zM864 0l-128 0c-17.696 0-32 14.304-32 32L704 736c0 17.664 14.304 32 32 32l128 0c17.696 0 32-14.336 32-32l0-704C896 14.304 881.696 0 864 0zM768 64l64 0L832 704l-64 0L768 64z"  horiz-adv-x="1024" />

    
    <glyph glyph-name="arrow_up_fill" unicode="&#59468;" d="M851.2 537.6l-316.8 256c-12.8 9.6-28.8 9.6-41.6 0l-320-256c-9.6-9.6-16-22.4-9.6-35.2 6.4-12.8 16-22.4 32-22.4H352v-224c0-19.2 12.8-32 32-32h256c19.2 0 32 12.8 32 32v224h156.8c12.8 0 25.6 9.6 28.8 22.4 6.4 12.8 3.2 25.6-6.4 35.2zM640 32h-256c-19.2 0-32-12.8-32-32s12.8-32 32-32h256c19.2 0 32 12.8 32 32s-12.8 32-32 32zM640 160h-256c-19.2 0-32-12.8-32-32s12.8-32 32-32h256c19.2 0 32 12.8 32 32s-12.8 32-32 32z"  horiz-adv-x="1024" />

    
    <glyph glyph-name="bad" unicode="&#59171;" d="M127.168 128.832c-17.6-0.16-31.68-14.464-31.616-32.064 0.032-17.6 14.368-31.872 31.968-31.936 3.68-0.032 90.912-1.376 169.568-87.52 6.304-6.944 14.976-10.432 23.648-10.432 7.68 0 15.424 2.752 21.568 8.384 13.056 11.904 13.984 32.16 2.048 45.184C245.632 128.64 131.776 128.672 127.168 128.832zM867.872 127.328c-5.824 0.48-142.304 9.024-250.112-106.624-12.064-12.896-11.328-33.152 1.6-45.216 6.144-5.76 14.016-8.608 21.824-8.608 8.576 0 17.088 3.392 23.392 10.176 86.816 93.12 194.016 86.72 198.656 86.432 17.376-1.408 32.928 12.032 34.176 29.632C898.688 110.72 885.504 126.016 867.872 127.328zM926.176 349.152c-24.832 60.64-76.864 115.744-121.44 158.016 39.84 28.928 69.376 66.336 88.064 111.584 5.376 12.928 1.664 27.872-9.088 36.8-102.048 84.96-275.008 144.256-420.512 144.256-120.864 0-210.528-39.2-259.328-113.312l0.096-0.064C193.92 674.08 181.728 651.04 167.392 608.224c-0.544-1.568-0.928-3.2-1.216-4.864C159.168 576.64 157.76 548.928 161.344 520.864c-0.096-1.056-0.608-1.952-0.576-3.04 0.128-12.96 6.656-320.16 300.448-573.824 6.048-5.216 13.472-7.776 20.896-7.776 8.992 0 17.92 3.744 24.224 11.104 11.552 13.376 10.08 33.568-3.328 45.12-128.288 110.784-197.056 233.632-234.336 332.896 104.768-106.016 262.272-180.896 377.888-196.928 1.472-0.224 2.944-0.32 4.416-0.32 10.848 0 21.056 5.504 26.976 14.784 31.904 50.016 45.376 101.6 39.616 143.328 7.136-0.192 14.208-0.288 21.312-0.288 99.36 0 164.416 19.68 167.136 20.512 8.576 2.656 15.648 8.8 19.488 16.896C929.344 331.456 929.6 340.832 926.176 349.152zM738.88 349.952c-22.4 0-45.12 1.088-67.456 3.296-13.44 1.312-26.016-5.824-31.904-17.856-5.856-12.032-3.584-26.4 5.632-36.096 14.496-15.168 13.44-57.376-10.72-103.936-122.24 24.288-291.456 116.832-370.56 235.808-36.576 54.976-48.576 107.584-35.648 156.384 0.16 0.64 0.32 1.28 0.448 1.888 4.224 11.232 22.752 51.2 27.904 60.704 0.288 0.384 0.576 0.8 0.832 1.216 45.984 69.856 137.312 84.512 205.856 84.512 120.832 0 267.552-47.2 359.968-114.24-19.136-34.016-47.904-61.184-85.792-80.96-9.248-4.832-15.552-13.888-16.896-24.224-1.376-10.336 2.4-20.704 10.08-27.744 36-32.96 86.976-79.648 118.368-129.504C823.008 354.624 784.992 349.952 738.88 349.952z"  horiz-adv-x="1024" />

    
    <glyph glyph-name="xiaoheiqun" unicode="&#59469;" d="M512 667.733333c-196.266667 0-354.133333-160-354.133333-354.133333V170.666667C352 170.666667 512 328.533333 512 524.8c2.133333-194.133333 160-354.133333 354.133333-354.133333v142.933333c0 196.266667-157.866667 354.133333-354.133333 354.133333zM516.266667 693.333333c23.466667 0 44.8-2.133333 66.133333-6.4l25.6 164.266667c0 2.133333 0 2.133333-2.133333 4.266667s-2.133333 0-4.266667 0l-14.933333-12.8c-8.533333-8.533333-21.333333-8.533333-27.733334 0l-27.733333 27.733333c-6.4 2.133333-12.8 4.266667-19.2 4.266667-6.4 0-12.8-2.133333-19.2-8.533334l-27.733333-27.733333c-8.533333-8.533333-21.333333-8.533333-27.733334 0l-14.933333 14.933333s-2.133333 2.133333-4.266667 0c-2.133333 0-2.133333-2.133333-2.133333-4.266666l25.6-164.266667c23.466667 6.4 49.066667 8.533333 74.666667 8.533333zM514.133333-72.533333c-132.266667 0-245.333333 91.733333-275.2 213.333333-10.666667-2.133333-23.466667-4.266667-36.266666-6.4C236.8-2.133333 362.666667-106.666667 514.133333-106.666667s277.333333 104.533333 311.466667 243.2c-12.8 2.133333-23.466667 4.266667-36.266667 6.4-32-123.733333-142.933333-215.466667-275.2-215.466666z"  horiz-adv-x="1024" />

    
    <glyph glyph-name="cameraadd" unicode="&#59172;" d="M480 544c-105.888 0-192-86.112-192-192s86.112-192 192-192 192 86.112 192 192S585.888 544 480 544zM480 224c-70.592 0-128 57.408-128 128 0 70.592 57.408 128 128 128 70.592 0 128-57.408 128-128C608 281.408 550.592 224 480 224zM576 64 160 64c-17.632 0-32 14.336-32 32L128 608c0 17.632 14.368 32 32 32l96 0c17.664 0 32 14.336 32 32S273.664 704 256 704L160 704C107.072 704 64 660.928 64 608l0-512c0-52.928 43.072-96 96-96l416 0c17.696 0 32 14.304 32 32S593.696 64 576 64zM512 640l320 0c17.664 0 32-14.368 32-32l0-256c0-17.696 14.304-32 32-32s32 14.304 32 32L928 608c0 52.928-43.072 96-96 96L512 704c-17.664 0-32-14.336-32-32S494.336 640 512 640zM784 560m-48 0a1.5 1.5 0 1 0 96 0 1.5 1.5 0 1 0-96 0ZM320 736l128 0c17.696 0 32 14.304 32 32s-14.304 32-32 32l-128 0C302.304 800 288 785.696 288 768S302.304 736 320 736zM960 128l-96 0 0 96c0 17.696-14.304 32-32 32s-32-14.304-32-32l0-96-96 0c-17.696 0-32-14.304-32-32s14.304-32 32-32l96 0 0-96c0-17.696 14.304-32 32-32s32 14.304 32 32l0 96 96 0c17.696 0 32 14.304 32 32S977.696 128 960 128z"  horiz-adv-x="1024" />

    
    <glyph glyph-name="auction" unicode="&#59470;" d="M118.4 355.2c19.2 16 48 16 67.2 0l227.2-227.2c19.2-19.2 16-48 0-64-19.2-16-48-16-67.2 0l-227.2 227.2c-19.2 16-19.2 44.8 0 64m284.8-128l-112 112c-19.2 19.2-16 48 0 64 19.2 16 48 16 67.2 0l112-112c19.2-19.2 16-48 0-64-19.2-19.2-48-16-67.2 0m6.4 220.8c-19.2 19.2-16 48 0 64 19.2 16 48 16 67.2 0l438.4-435.2s28.8-35.2 0-64c-32-28.8-67.2 0-67.2 0L409.6 448z m473.6 44.8c-19.2-16-48-16-67.2 0l-227.2 227.2c-19.2 19.2-16 48 0 64 19.2 16 48 16 67.2 0l227.2-227.2c19.2-16 19.2-44.8 0-64m-288 128l112-112c19.2-19.2 16-48 0-64-19.2-16-48-16-67.2 0l-112 112c-19.2 19.2-16 48 0 64 19.2 19.2 48 16 67.2 0"  horiz-adv-x="1024" />

    
    <glyph glyph-name="focus" unicode="&#59173;" d="M512 512c-70.592 0-128-57.408-128-128 0-70.592 57.408-128 128-128 70.592 0 128 57.408 128 128C640 454.592 582.592 512 512 512zM512 320c-35.296 0-64 28.704-64 64 0 35.296 28.704 64 64 64 35.296 0 64-28.704 64-64C576 348.704 547.296 320 512 320zM928 416l-0.928 0C911.424 620.224 748.224 783.424 544 799.072L544 800c0 17.664-14.336 32-32 32s-32-14.336-32-32l0-0.928C275.776 783.424 112.576 620.224 96.928 416L96 416c-17.664 0-32-14.336-32-32s14.336-32 32-32l0.928 0C112.576 147.776 275.776-15.424 480-31.072L480-32c0-17.696 14.336-32 32-32s32 14.304 32 32l0 0.928C748.224-15.424 911.424 147.776 927.072 352L928 352c17.696 0 32 14.336 32 32S945.696 416 928 416zM544 32.928 544 96c0 17.696-14.336 32-32 32s-32-14.304-32-32l0-63.072C311.04 48.224 176.224 183.072 160.928 352L224 352c17.664 0 32 14.336 32 32s-14.336 32-32 32L160.928 416C176.224 584.96 311.04 719.776 480 735.072L480 672c0-17.664 14.336-32 32-32s32 14.336 32 32L544 735.072C712.928 719.776 847.776 584.96 863.072 416L800 416c-17.696 0-32-14.336-32-32s14.304-32 32-32l63.072 0C847.776 183.072 712.928 48.224 544 32.928z"  horiz-adv-x="1024" />

    
    <glyph glyph-name="return" unicode="&#59471;" d="M624 608H236.8l105.6 105.6c12.8 12.8 12.8 32 0 44.8s-32 12.8-44.8 0l-160-160c-3.2-3.2-6.4-6.4-6.4-9.6-3.2-9.6-3.2-16 0-25.6 3.2-3.2 3.2-6.4 6.4-9.6l160-160c6.4-6.4 12.8-9.6 22.4-9.6s16 3.2 22.4 9.6c12.8 12.8 12.8 32 0 44.8L236.8 544h387.2c115.2 0 208-92.8 208-208S739.2 128 624 128H252.8c-19.2 0-32-12.8-32-32s12.8-32 32-32h371.2c150.4 0 272 121.6 272 272S774.4 608 624 608z"  horiz-adv-x="1024" />

    
    <glyph glyph-name="friendfill" unicode="&#59174;" d="M518.944 242.112l0 6.624c89.728 64.224 89.44 175.328 89.216 265.536l-0.032 13.6c0 130.656-78.752 208.672-210.72 208.672l-6.656 0c-126.56 0-196.256-74.112-196.256-208.672 0-67.872 0-205.664 103.584-279.168l0-5.376c-120.096-16.96-232.8-66.272-232.8-144.672 0-109.056 107.68-162.08 329.152-162.08 283.392 0 342.848 88.16 342.848 162.08C737.28 182.752 598.464 226.848 518.944 242.112zM929.632 128.224c-17.504 0-31.776 14.24-32 31.776-0.32 23.456-101.632 88.48-197.376 99.712C684.16 261.632 672 275.296 672 291.488l0 66.272c0 9.728 4.448 18.912 12.032 24.992 54.08 43.232 94.912 137.28 94.912 218.784 0 109.984-74.304 133.056-136.64 133.056-17.696 0-32 14.336-32 32s14.304 32 32 32c123.744 0 200.64-75.52 200.64-197.056 0-94.72-44.288-200.384-106.944-258.4l0-24.64c91.904-19.616 225.632-83.872 225.632-158.528 0-17.6-14.208-31.68-31.808-31.776C929.76 128.224 929.696 128.224 929.632 128.224z"  horiz-adv-x="1024" />

    
    <glyph glyph-name="mall_light" unicode="&#59472;" d="M917.333333 42.666667h-42.666666V512c36.266667 0 64 27.733333 64 64v6.4l-42.666667 136.533333C893.866667 746.666667 870.4 768 842.666667 768h-661.333334C153.6 768 130.133333 746.666667 128 718.933333l-42.666667-136.533333v-6.4c0-36.266667 27.733333-64 64-64v-469.333333H106.666667c-12.8 0-21.333333-8.533333-21.333334-21.333334s8.533333-21.333333 21.333334-21.333333h810.666666c12.8 0 21.333333 8.533333 21.333334 21.333333s-8.533333 21.333333-21.333334 21.333334z m-85.333333 0H533.333333V512h298.666667v-469.333333zM128 573.866667l42.666667 134.4v6.4c0 6.4 4.266667 10.666667 10.666666 10.666666h661.333334c6.4 0 10.666667-4.266667 10.666666-10.666666v-6.4l40.533334-134.4c-2.133333-10.666667-10.666667-19.2-21.333334-19.2H149.333333c-10.666667 0-19.2 8.533333-21.333333 19.2zM192 512h298.666667v-469.333333H192V512zM731.733333 241.066667c4.266667-4.266667 10.666667-6.4 14.933334-6.4s10.666667 2.133333 14.933333 6.4c8.533333 8.533333 8.533333 21.333333 0 29.866666l-128 128c-8.533333 8.533333-21.333333 8.533333-29.866667 0s-8.533333-21.333333 0-29.866666l128-128zM582.4 262.4l64-64c4.266667-4.266667 10.666667-6.4 14.933333-6.4s10.666667 2.133333 14.933334 6.4c8.533333 8.533333 8.533333 21.333333 0 29.866667l-64 64c-8.533333 8.533333-21.333333 8.533333-29.866667 0s-8.533333-21.333333 0-29.866667z"  horiz-adv-x="1024" />

    
    </font>
</defs>
</svg>
